Пространство / The Expanse [S01] (2015-2016) BDRip HEVC 720p | Jaskier

 Статистика раздачи 
Размер: 8.39 ГБ   |  Зарегистрирован: 03 апр 2018, 23:30   |   .torrent скачан: 13350 раз
Сидеров: 22  [ 0 байт/сек ]     Личеров: 7  [ 0 байт/сек ]  
  
Аватара пользователя
Главный редактор
Главный редактор
 
Раздал: 60.38 ТБ
Скачал: 3.58 ТБ
Ратио: 17.295
Сообщения: 204718
Стаж: 8 лет 5 месяцев
Откуда: Санкт-Петербург

Название: Пространство / Экспансия
Оригинальное название: The Expanse


Сезон 1, серии 1-10 из 10


Год выпуска: 2015
Страна: США
Жанр: научная фантастика, детектив
Продолжительность: ~00:42:00
Перевод: Многоголосый закадровый [Jaskier]
Субтитры: русские (перевод - Вита Алая), английские


В ролях: Томас Джейн, Стивен Стрейт, Кэс Анвар, Доминик Типпер, Уэс Чэтэм, Шоре Агдашлу, Афина Карканис, Дрю Кэрримор, Чад Л. Коулмэн, Илайс Туфексис
Режиссёр: Роберт Либерман, Терри МакДонаф


Описание: Через двести лет от дня сегодняшнего некий сыщик, привыкший всё доводить до конца при любых обстоятельствах, в рамках расследования дела об исчезновении молодой женщины оказывается на борту звездолета, капитан которого решает помочь детективу в его непростом деле. Величайший заговор в истории человечества гарантируется, как и его непременное раскрытие.


Качество: BDRip 720p
Формат: MKV
Видео кодек: x265
Аудио кодек: AC3
Видео: 1280x720, 23,976 fps, HEVC, ~2112 kbps
Аудио: Rus, 48 kHz/16-bit, AC3 5.1, ~448 kbps | Jaskier
Аудио: Eng, 48 kHz/16-bit, AC3 5.1, ~448 kbps | Оригинал
Навигация по главам: Присутствует


Автор рипа: Alex_A










01. Дульсинея (Dulcinea)
02. Великая пустота (The Big Empty)
03. Не забудем "Кент" (Remember the Cant)
04. Ближний бой (CQB)
05. И снова к Палачу (Back to the Butcher)
06. На дне (Rock Bottom)
07. Ветряные мельницы (Windmills)
08. Трофей (Salvage)
09. Критическая масса (Critical Mass)
10. Пробуждение Левиафана (Leviathan Wakes)



- H.265/HEVC (High Efficiency Video Coding) - это новый стандарт кодирования видео.
- Стандарт H.265/HEVC является логическим продолжением стандарта H.264/AVC (Advanced Video Coding), и характеризуется более эффективными алгоритмами сжатия, а также поддержкой высокого разрешения вплоть до 8K UHD (8192x4320). Первая версия стандарта H.265 была опубликована в начале 2013 года.
- Рипы в фомате HEVC, в настоящее время не поддерживается большинством аппаратных проигрывателей.
- Для корректного воспроизведения может потребоваться обновление ПО.
- Владельцам несовместимого железа просьба не беспокоить, есть альтернативные релизы.

Общее
Уникальный идентификатор : 197828311725942365718731124616761514934 (0x94D458D110445048B604CB1437351BB6)
Полное имя : e:HEVCThe Expanse (2015) 720p HEVCCLUBThe.Expanse.S01E01.Dulcinea.720p_HEVCCLUB.mkv
Формат : Matroska
Версия формата : Version 4 / Version 2
Размер файла : 964 Мбайт
Продолжительность : 44 м. 46 с.
Общий поток : 3011 Кбит/сек
Название фильма : The Expanse [S01E01] - Dulcinea - HEVC.CLUB
Дата кодирования : UTC 2016-12-27 20:53:31
Программа кодирования : mkvmerge v9.4.0 ('Knurl') 64bit
Библиотека кодирования : libebml v1.3.4 + libmatroska v1.4.5
Обложка : Yes
Attachments : cover.jpg

Видео
Идентификатор : 1
Формат : HEVC
Формат/Информация : High Efficiency Video Coding
Профиль формата : Main 10@L4.1@High
Идентификатор кодека : V_MPEGH/ISO/HEVC
Продолжительность : 44 м. 46 с.
Битрейт : 2112 Кбит/сек
Ширина : 1280 пикселей
Высота : 720 пикселей
Соотношение сторон : 16:9
Режим частоты кадров : Постоянный
Частота кадров : 23,976 (24000/1001) кадра/сек
Цветовое пространство : YUV
Субдискретизация насыщенности : 4:2:0
Битовая глубина : 10 бит
Бит/(Пиксели*Кадры) : 0.096
Размер потока : 676 Мбайт (70%)
Заголовок : HEVC.CLUB
Библиотека кодирования : x265 2.0+18-b0ec268aef60:[Windows][GCC 6.1.0][64 bit] 10bit
Настройки программы : wpp / ctu=32 / min-cu-size=8 / max-tu-size=32 / tu-intra-depth=2 / tu-inter-depth=2 / me=2 / subme=5 / merange=60 / no-rect / no-amp / max-merge=2 / temporal-mvp / no-early-skip / no-rskip / rdpenalty=0 / no-tskip / no-tskip-fast / no-strong-intra-smoothing / no-lossless / no-cu-lossless / no-constrained-intra / no-fast-intra / open-gop / no-temporal-layers / interlace=0 / keyint=250 / min-keyint=23 / scenecut=40 / rc-lookahead=60 / lookahead-slices=1 / bframes=8 / bframe-bias=0 / b-adapt=2 / ref=6 / limit-refs=3 / no-limit-modes / weightp / weightb / aq-mode=1 / qg-size=32 / aq-strength=0.50 / cbqpoffs=0 / crqpoffs=0 / rd=4 / psy-rd=2.00 / rdoq-level=1 / psy-rdoq=3.00 / log2-max-poc-lsb=8 / no-rd-refine / signhide / deblock=-3:-3 / no-sao / no-sao-non-deblock / b-pyramid / no-cutree / no-intra-refresh / rc=crf / crf=21.0 / qcomp=0.80 / qpmin=0 / qpmax=69 / qpstep=6 / vbv-maxrate=50000 / vbv-bufsize=50000 / crf-max=0.0 / ipratio=1.50 / pbratio=1.10
Default : Да
Forced : Да
Цветовой диапазон : Limited
Коэффициенты матрицы : BT.709

Аудио #1
Идентификатор : 2
Формат : AC-3
Формат/Информация : Audio Coding 3
Расширение режима : CM (complete main)
Параметр Endianness формата : Big
Идентификатор кодека : A_AC3
Продолжительность : 44 м. 46 с.
Вид битрейта : Постоянный
Битрейт : 448 Кбит/сек
Каналы : 6 каналов
Расположение каналов : Front: L C R, Side: L R, LFE
Частота : 48,0 КГц
Частота кадров : 31,250 кадров/сек (1536 spf)
Битовая глубина : 16 бит
Метод сжатия : С потерями
Размер потока : 143 Мбайт (15%)
Заголовок : Jaskier
Язык : Russian
Default : Да
Forced : Нет

Аудио #2
Идентификатор : 3
Формат : AC-3
Формат/Информация : Audio Coding 3
Расширение режима : CM (complete main)
Параметр Endianness формата : Big
Идентификатор кодека : A_AC3
Продолжительность : 44 м. 46 с.
Вид битрейта : Постоянный
Битрейт : 448 Кбит/сек
Каналы : 6 каналов
Расположение каналов : Front: L C R, Side: L R, LFE
Частота : 48,0 КГц
Частота кадров : 31,250 кадров/сек (1536 spf)
Битовая глубина : 16 бит
Метод сжатия : С потерями
Размер потока : 143 Мбайт (15%)
Заголовок : Original
Язык : English
Default : Нет
Forced : Нет

Текст #1
Идентификатор : 4
Формат : UTF-8
Идентификатор кодека : S_TEXT/UTF8
Идентификатор кодека/Информация : UTF-8 Plain Text
Продолжительность : 44 м. 27 с.
Битрейт : 94 бит/сек
Count of elements : 556
Размер потока : 30,8 Кбайт (0%)
Язык : Russian
Default : Нет
Forced : Нет

Текст #2
Идентификатор : 5
Формат : UTF-8
Идентификатор кодека : S_TEXT/UTF8
Идентификатор кодека/Информация : UTF-8 Plain Text
Продолжительность : 42 м. 26 с.
Битрейт : 59 бит/сек
Count of elements : 563
Размер потока : 18,5 Кбайт (0%)
Язык : English
Default : Нет
Forced : Нет

Меню
00:00:00.000 : en:00:00:00.000
00:04:28.560 : en:00:04:28.560
00:20:38.528 : en:00:20:38.528
00:35:37.260 : en:00:35:37.260


Не забывайте говорить Спасибо. Не уходите с раздачи!   
Торрент: Зарегистрирован [03 апр 2018, 23:30] Для скачивания .torrent
необходима регистрация
Или скачать с помощью
MediaGet
Статус:
Проверен
 
.torrent скачан: 13350 раз
Хэш: de41375ebe4de610ef7251c5636e2c0098c30a36
Размер: 8.39 ГБ (9 011 737 139 байт)
   Стать Автором раздачи
   
Цитата
  • Похожие торренты
    Ответы
    Просмотры
    Последнее сообщение

Вернуться в Пространство / The Expanse

Кто сейчас на конференции

Сейчас эту тему просматривают: нет зарегистрированных пользователей и гости: 1