Пространство / The Expanse [S01] (2015-2016) WEB-DLRip | КПК | LostFilm

 Статистика раздачи 
Размер: 2.11 ГБ   |  Зарегистрирован: 03 апр 2018, 23:29   |   .torrent скачан: 0 раз
Сидеров: 0  [ 0 байт/сек ]     Личеров: 0  [ 0 байт/сек ]  
  
Аватара пользователя
Главный редактор
Главный редактор
 
Раздал: 59.93 ТБ
Скачал: 3.58 ТБ
Ратио: 17.168
Сообщения: 204690
Стаж: 8 лет 4 месяца 29 дней
Откуда: Санкт-Петербург

• Экспансия / The Expanse •

Страна: США
Производство: Alcon Entertainment, Sean Daniel Company
Год выпуска: 2015-2016
Жанр: фантастика, детектив
Режиссёр: Роберт Либерман, Терри МакДонаф
В ролях: Томас Джейн, Стивен Стрейт, Кэс Анвар, Доминик Типпер, Уэс Чэтэм, Шоре Агдашлу, Афина Карканис, Дрю Кэрримор, Чад Л. Коулмэн, Илайс Туфексис
Перевод: Профессиональный (многоголосый закадровый) от LostFilm
Описание: Через двести лет от дня сегодняшнего некий сыщик, привыкший всё доводить до конца при любых обстоятельствах, в рамках расследования дела об исчезновении молодой женщины оказывается на борту звездолета, капитан которого решает помочь детективу в его непростом деле. Величайший заговор в истории человечества гарантируется, как и его непременное раскрытие.

Качество: WEB-DLRip
Продолжительность: по ~ 00:43:00
Формат: MP4
Разрешение экрана: 640x360
Видео кодек: H.264 AVC
Аудио кодек: AAC-LC
Свойства видео: 640x360 (16:9), 23.976 fps, 600 kbps (0.109 bit/pixel)
Свойства аудио: 48.0 KHz, 2 ch, 128 kbps
General
Complete name : The.Expanse.S01E01.WEB-DLRip.rus.LostFilm.TV.mp4
Format : MPEG-4
Format profile : Base Media
Codec ID : isom
File size : 235 MiB
Duration : 44mn 56s
Overall bit rate mode : Variable
Overall bit rate : 732 Kbps
Encoded date : UTC 2015-11-30 11:53:35
Tagged date : UTC 2015-11-30 11:53:35
Video
ID : 1
Format : AVC
Format/Info : Advanced Video Codec
Format profile : High@L4.1
Format settings, CABAC : Yes
Format settings, ReFrames : 9 frames
Codec ID : avc1
Codec ID/Info : Advanced Video Coding
Duration : 44mn 56s
Bit rate : 600 Kbps
Maximum bit rate : 1 659 Kbps
Width : 640 pixels
Height : 360 pixels
Display aspect ratio : 16:9
Frame rate mode : Constant
Frame rate : 23.976 fps
Color space : YUV
Chroma subsampling : 4:2:0
Bit depth : 8 bits
Scan type : Progressive
Bits/(Pixel*Frame) : 0.109
Stream size : 193 MiB (82%)
Title : 264@GPAC0.5.2-DEV-rev248-g39d5978-master
Writing library : x264 core 146 r2538 121396c
Encoding settings : cabac=1 / ref=9 / deblock=1:-3:-3 / analyse=0x3:0x113 / me=umh / subme=11 / psy=1 / psy_rd=1.00:0.00 / mixed_ref=1 / me_range=32 / chroma_me=1 / trellis=2 / 8x8dct=1 / cqm=0 / deadzone=21,11 / fast_pskip=0 / chroma_qp_offset=-2 / threads=6 / lookahead_threads=1 / sliced_threads=0 / nr=0 / decimate=0 / interlaced=0 / bluray_compat=0 / constrained_intra=0 / bframes=9 / b_pyramid=2 / b_adapt=2 / b_bias=0 / direct=3 / weightb=1 / open_gop=0 / weightp=2 / keyint=240 / keyint_min=23 / scenecut=40 / intra_refresh=0 / rc=2pass / mbtree=0 / bitrate=600 / ratetol=1.0 / qcomp=0.60 / qpmin=0 / qpmax=69 / qpstep=4 / cplxblur=20.0 / qblur=0.5 / ip_ratio=1.40 / pb_ratio=1.30 / aq=1:1.00
Encoded date : UTC 2015-11-30 11:53:35
Tagged date : UTC 2015-11-30 11:53:50
Audio
ID : 2
Format : AAC
Format/Info : Advanced Audio Codec
Format profile : LC
Codec ID : 40
Duration : 44mn 56s
Bit rate mode : Variable
Bit rate : 128 Kbps
Maximum bit rate : 145 Kbps
Channel(s) : 2 channels
Channel positions : Front: L R
Sampling rate : 48.0 KHz
Compression mode : Lossy
Stream size : 41.1 MiB (17%)
Encoded date : UTC 2015-11-30 10:26:09
Tagged date : UTC 2015-11-30 11:53:50
Не забывайте говорить Спасибо. Не уходите с раздачи!   
Торрент: Зарегистрирован [03 апр 2018, 23:29] Для скачивания .torrent
необходима регистрация
Или скачать с помощью
MediaGet
Статус:
Проверен
 
.torrent скачан: 0 раз
Хэш: f3036e9bb15b888c5c9bf311bee82f54523bb14b
Размер: 2.11 ГБ (2 266 098 298 байт)
   Стать Автором раздачи
   
Цитата
  • Похожие торренты
    Ответы
    Просмотры
    Последнее сообщение

Вернуться в Пространство / The Expanse

Кто сейчас на конференции

Сейчас эту тему просматривают: нет зарегистрированных пользователей и гости: 1