Хороший доктор / The Good Doctor [S01] (2018) WEB-DLRip 720p | LostFilm

 Статистика раздачи 
Размер: 23.11 ГБ   |  Зарегистрирован: 02 апр 2018, 23:35   |   .torrent скачан: 256 раз
Сидеров: 59  [ 0 байт/сек ]     Личеров: 23  [ 0 байт/сек ]  
  
Аватара пользователя
Главный редактор
Главный редактор
Я на сайте
 
Раздал: 54.1 ТБ
Скачал: 2.68 ТБ
Ратио: 20.629
Сообщения: 199349
Стаж: 8 лет 3 месяца 27 дней
Откуда: Санкт-Петербург

Производство: США / 3AD, ABC Studios, EnterMedia Contents
Жанр: Драма

Режиссер: Майкл Патрик Джэнн, Нестор Карбонелл, Джон Дал
Актеры: Фредди Хаймор, Николас Гонсалес, Антония Томас, Чуку Моду, Бо Гарретт, Тэмлин Томита, Хилл Харпер, Ричард Шифф, Грэм Верчир, Терил Ротери

Описание:
История молодого талантливого врача с синдромом саванта, обладающего уникальными способностями — невероятной памятью и фантастической чувствительностью к проблемам, вспыхивающим внутри человеческого организма. Герой становится блестящим хирургом, несмотря на это, в личностном плане его развитие соответствует уровню десятилетнего ребёнка...



Продолжительность: ~00:43:00 серия
Качество видео: WEB-DLRip 720p
Перевод: Профессиональный (многоголосый закадровый) - LostFilm
Субтитры: Отсутствуют
Реклама: Присутствует заставка и логотип LostFilm

Видео: AVC/H.264, 1280x720 (16:9), ~4000 kbps
Аудио: AAC, 2 ch, ~223 kbps - русский (многоголосый закадровый)

General
Complete name : S:The.Good.Doctor.S01.WEB-DLRip.720p.LostFilmThe.Good.Doctor.S01E13.720p.WEB.rus.LostFilm.TV.mp4
Format : MPEG-4
Format profile : Base Media
Codec ID : isom (isom)
File size : 1.27 GiB
Duration : 43 min 10 s
Overall bit rate mode : Variable
Overall bit rate : 4 226 kb/s
Collection : Добрый доктор
Season : 1
Album : Добрый доктор, Сезон 1
Album/Performer : Добрый доктор
Part : 13
Part/Position : 1
Track name : Семь причин
Track name/Position : 13
Performer : Добрый доктор
Genre : Drama
ContentType : TV Show
Recorded date : 2018
Encoded date : UTC 2018-01-23 17:52:23
Tagged date : UTC 2018-01-23 17:52:23
Writing application : Yamb 2.1.0.0 [http://yamb.unite-video.com] / LostCoder
Copyright : LostFilm.TV (c)
Cover : Yes
Comment : В день, когда дождь пах мороженым, у него умер любимый кролик. В другой день, когда трубы в старом здании пахли сгоревшей едой, трагически погиб его брат. С тех пор у Шона Мёрфи появилась мечта стать врачом.
Part_ID : 113

Video
ID : 1
Format : AVC
Format/Info : Advanced Video Codec
Format profile : High@L4.1
Format settings : CABAC / 4 Ref Frames
Format settings, CABAC : Yes
Format settings, ReFrames : 4 frames
Codec ID : avc1
Codec ID/Info : Advanced Video Coding
Duration : 43 min 10 s
Bit rate : 4 000 kb/s
Maximum bit rate : 25.2 Mb/s
Width : 1 280 pixels
Height : 720 pixels
Display aspect ratio : 16:9
Frame rate mode : Constant
Frame rate : 23.976 (24000/1001) FPS
Original frame rate : 23.976 (23976/1000) FPS
Color space : YUV
Chroma subsampling : 4:2:0
Bit depth : 8 bits
Scan type : Progressive
Bits/(Pixel*Frame) : 0.181
Stream size : 1.21 GiB (95%)
Title : Imported with GPAC 0.4.6-DEV (internal rev. 5)
Writing library : x264 core 112 r1834 a51816a
Encoding settings : cabac=1 / ref=4 / deblock=1:-3:-2 / analyse=0x3:0x113 / me=hex / subme=7 / psy=1 / psy_rd=1.00:0.00 / mixed_ref=1 / me_range=16 / chroma_me=1 / trellis=1 / 8x8dct=1 / cqm=0 / deadzone=21,11 / fast_pskip=1 / chroma_qp_offset=-2 / threads=12 / sliced_threads=0 / nr=0 / decimate=1 / interlaced=0 / constrained_intra=0 / bframes=5 / b_pyramid=2 / b_adapt=1 / b_bias=0 / direct=1 / weightb=1 / open_gop=0 / weightp=2 / keyint=250 / keyint_min=25 / scenecut=40 / intra_refresh=0 / rc_lookahead=40 / rc=2pass / mbtree=1 / bitrate=4000 / ratetol=1.0 / qcomp=0.60 / qpmin=0 / qpmax=51 / qpstep=4 / cplxblur=20.0 / qblur=0.5 / vbv_maxrate=10000 / vbv_bufsize=256000 / ip_ratio=1.40 / aq=1:1.00 / nal_hrd=none
Encoded date : UTC 2018-01-23 11:11:13
Tagged date : UTC 2018-01-23 17:53:14

Audio
ID : 2
Format : AAC
Format/Info : Advanced Audio Codec
Format profile : LC
Codec ID : mp4a-40-2
Duration : 43 min 9 s
Bit rate mode : Variable
Bit rate : 223 kb/s
Maximum bit rate : 283 kb/s
Channel(s) : 2 channels
Channel positions : Front: L R
Sampling rate : 48.0 kHz
Frame rate : 46.875 FPS (1024 SPF)
Compression mode : Lossy
Stream size : 68.9 MiB (5%)
Encoded date : UTC 2018-01-23 17:53:11
Tagged date : UTC 2018-01-23 17:53:14

01. Burnt Food / Запах гари
02. Mount Rushmore / Гора Рашмор
03. Oliver / Оливер
04. Pipes / Трубы
05. Point Three Percent / Три десятых процента
06. Not Fake / Не подделка
07. 22 Steps / 22 шага
08. Apple / Яблоко
09. Intangibles / Нюансы
10. Sacrifice / Жертва
11. Islands (1) / Острова. Часть первая
12. Islands (2) / Острова. Часть вторая
13. Seven Reasons / Семь причин
14. She / Она
15. Heartfelt / От самого сердца
16. Pain / Боль
17. Smile / Улыбка
18. More / Больше

Скриншоты:
Не забывайте говорить Спасибо. Не уходите с раздачи!   
Торрент: Зарегистрирован [02 апр 2018, 23:35] Для скачивания .torrent
необходима регистрация
Или скачать с помощью
MediaGet
Статус:
Проверен
 
.torrent скачан: 256 раз
Хэш: 6369f5fe6b752b063a0aef74af08c51db698b0a9
Размер: 23.11 ГБ (24 817 171 033 байт)
   Стать Автором раздачи
   
Цитата

Вернуться в Хороший доктор / The Good Doctor

Кто сейчас на конференции

Сейчас эту тему просматривают: нет зарегистрированных пользователей и гости: 1