Мир Дикого Запада / Westworld [S01] (2016) BDRip 720p | Кравец, AlexFilm, Кубик в Кубе

 Статистика раздачи 
Размер: 36.02 ГБ   |  Зарегистрирован: 01 апр 2018, 15:41   |   .torrent скачан: 594 раз
Сидеров: 56  [ 0 байт/сек ]     Личеров: 19  [ 0 байт/сек ]  
  
Аватара пользователя
Главный редактор
Главный редактор
 
Раздал: 88.68 ТБ
Скачал: 3.78 ТБ
Ратио: 23.895
Сообщения: 231642
Стаж: 8 лет 11 месяцев 24 дня
Откуда: Санкт-Петербург

Название: Мир Дикого Запада
Оригинальное название: Westworld
Год выхода: 2016
Страна: США
Студия: Bad Robot, Jerry Weintraub Productions, Kilter Films
Продолжительность: 10 x ~ 58:00
Жанр: фантастика, драма, детектив, вестерн

Режиссер: Джонатан Нолан, Фред Туа, Джонни Кэмпбелл, ...
В ролях: Энтони Хопкинс, Эван Рэйчел Вуд, Эд Харрис, Джеймс Марсден, Тэнди Ньютон, Джеффри Райт, Родриго Санторо, Шеннон Мари Вудворд, Ингрид Больсё Бердаль, Саймон Куотерман, ...

Перевод:
- Профессиональный (дублированный) Кравец по заказу Amedia
- Профессиональный (многоголосый, закадровый) AlexFilm
- Профессиональный (двуголосый, закадровый) Кубик в Кубе
- Субтитры

О фильме: В футуристическом парке развлечений «Мир Дикого Запада» специально сконструированные андроиды выполняют любые прихоти посетителей, чтобы те чувствовали безнаказанность и полную свободу действий. Если робота убили — не беда, техники его починят, сотрут память и снова поставят в строй, навстречу новому дню и новым людским прихотям. Но оказывается, что далеко не все роботы теряют воспоминания…



Кодек: x264
Качество: BDRip 720p
Видео: 1280x720, ~5000 kbps, 23,976 fps
Аудио #1: AC-3, 6 ch, 384 kbps (Rus) - Кравец
Аудио #2: AC-3, 6 ch, 640 kbps (Rus) - AlexFilm
Аудио #3: AC-3, 6 ch, 640 kbps (Rus) - Кубик в Кубе
Аудио #4: DTS, 6 ch, 1509 kbps (Eng)
Субтитры: русские, английские

Общее
Уникальный идентификатор : 202117409915039240789779801379575468972 (0x980E65AF24E18C67AB0E35C3BD2893AC)
Полное имя : Westworld E01 S01 2016 BDRip 720p Кравец AlexFilm Кубик в Кубе.mkv
Формат : Matroska
Версия формата : Version 2
Размер файла : 4,07 Гбайт
Продолжительность : 1 ч. 8 м.
Общий поток : 8553 Кбит/сек
Дата кодирования : UTC 2018-01-08 13:26:08
Программа кодирования : mkvmerge v4.0.0 ('The Stars were mine') сборка от Jun 6 2010 16:18:42
Библиотека кодирования : libebml v1.0.0 + libmatroska v1.0.0

Видео
Идентификатор : 1
Формат : AVC
Формат/Информация : Advanced Video Codec
Профиль формата : High@L4.1
Параметр CABAC формата : Да
Параметр ReFrames формата : 5 кадров
Идентификатор кодека : V_MPEG4/ISO/AVC
Продолжительность : 1 ч. 8 м.
Битрейт : 5378 Кбит/сек
Ширина : 1280 пикселей
Высота : 720 пикселей
Соотношение сторон : 16:9
Режим частоты кадров : Постоянный
Частота кадров : 23,976 кадра/сек
Цветовое пространство : YUV
Субдискретизация насыщенности : 4:2:0
Битовая глубина : 8 бит
Тип развёртки : Прогрессивная
Бит/(Пиксели*Кадры) : 0.243
Размер потока : 2,48 Гбайт (61%)
Библиотека кодирования : x264 core 152 r2851 ba24899
Настройки программы : cabac=1 / ref=5 / deblock=1:0:0 / analyse=0x3:0x133 / me=umh / subme=7 / psy=1 / psy_rd=1.00:0.00 / mixed_ref=1 / me_range=16 / chroma_me=1 / trellis=1 / 8x8dct=1 / cqm=0 / deadzone=21,11 / fast_pskip=0 / chroma_qp_offset=-2 / threads=22 / lookahead_threads=3 / sliced_threads=0 / nr=0 / decimate=1 / interlaced=0 / bluray_compat=0 / constrained_intra=0 / bframes=3 / b_pyramid=2 / b_adapt=1 / b_bias=0 / direct=1 / weightb=1 / open_gop=0 / weightp=2 / keyint=250 / keyint_min=23 / scenecut=40 / intra_refresh=0 / rc_lookahead=40 / rc=2pass / mbtree=1 / bitrate=5378 / ratetol=1.0 / qcomp=0.60 / qpmin=0 / qpmax=69 / qpstep=4 / cplxblur=20.0 / qblur=0.5 / ip_ratio=1.40 / aq=1:1.00
Язык : English
Default : Нет
Forced : Нет

Аудио #1
Идентификатор : 2
Формат : AC-3
Формат/Информация : Audio Coding 3
Расширение режима : CM (complete main)
Параметр Endianness формата : Big
Идентификатор кодека : A_AC3
Продолжительность : 1 ч. 8 м.
Вид битрейта : Постоянный
Битрейт : 384 Кбит/сек
Каналы : 6 каналов
Расположение каналов : Front: L C R, Side: L R, LFE
Частота : 48,0 КГц
Частота кадров : 31,250 кадров/сек (1536 spf)
Метод сжатия : С потерями
Размер потока : 187 Мбайт (4%)
Заголовок : Dub Кравец
Язык : Russian
Default : Нет
Forced : Нет

Аудио #2
Идентификатор : 3
Формат : AC-3
Формат/Информация : Audio Coding 3
Расширение режима : CM (complete main)
Параметр Endianness формата : Big
Идентификатор кодека : A_AC3
Продолжительность : 1 ч. 8 м.
Вид битрейта : Постоянный
Битрейт : 640 Кбит/сек
Каналы : 6 каналов
Расположение каналов : Front: L C R, Side: L R, LFE
Частота : 48,0 КГц
Частота кадров : 31,250 кадров/сек (1536 spf)
Метод сжатия : С потерями
Размер потока : 312 Мбайт (7%)
Заголовок : MVO AlexFilm
Язык : Russian
Default : Нет
Forced : Нет

Аудио #3
Идентификатор : 4
Формат : AC-3
Формат/Информация : Audio Coding 3
Расширение режима : CM (complete main)
Параметр Endianness формата : Big
Идентификатор кодека : A_AC3
Продолжительность : 1 ч. 8 м.
Вид битрейта : Постоянный
Битрейт : 640 Кбит/сек
Каналы : 6 каналов
Расположение каналов : Front: L C R, Side: L R, LFE
Частота : 48,0 КГц
Частота кадров : 31,250 кадров/сек (1536 spf)
Метод сжатия : С потерями
Размер потока : 312 Мбайт (7%)
Заголовок : DVO Кубик в Кубе
Язык : Russian
Default : Нет
Forced : Нет

Аудио #4
Идентификатор : 5
Формат : DTS
Формат/Информация : Digital Theater Systems
Режим : 16
Параметр Endianness формата : Big
Идентификатор кодека : A_DTS
Продолжительность : 1 ч. 8 м.
Вид битрейта : Постоянный
Битрейт : 1509 Кбит/сек
Каналы : 6 каналов
Расположение каналов : Front: L C R, Side: L R, LFE
Частота : 48,0 КГц
Частота кадров : 93,750 кадра/сек (512 spf)
Битовая глубина : 24 бит
Метод сжатия : С потерями
Размер потока : 735 Мбайт (18%)
Язык : English
Default : Нет
Forced : Нет

Текст #1
Идентификатор : 6
Формат : UTF-8
Идентификатор кодека : S_TEXT/UTF8
Идентификатор кодека/Информация : UTF-8 Plain Text
Заголовок : Amedia
Язык : Russian
Default : Нет
Forced : Нет

Текст #2
Идентификатор : 7
Формат : UTF-8
Идентификатор кодека : S_TEXT/UTF8
Идентификатор кодека/Информация : UTF-8 Plain Text
Язык : English
Default : Нет
Forced : Нет

Меню
00:00:00.000 : en:00:00:00.000
00:01:47.607 : en:00:01:47.607
00:14:14.896 : en:00:14:14.896
00:22:41.235 : en:00:22:41.235
00:33:14.451 : en:00:33:14.451
00:43:01.370 : en:00:43:01.370
00:54:44.781 : en:00:54:44.781
01:06:51.257 : en:01:06:51.257


Не забывайте говорить Спасибо. Не уходите с раздачи!   
Торрент: Зарегистрирован [01 апр 2018, 15:41]
Статус:
Проверен
 
.torrent скачан: 594 раз
Хэш: 0d22ac713a7337e2792af6f89f66f7856204a9bc
Размер: 36.02 ГБ (38 671 688 528 байт)
   Стать Автором раздачи
   
Цитата

Вернуться в Мир Дикого запада / Westworld

Кто сейчас на конференции

Сейчас эту тему просматривают: нет зарегистрированных пользователей и гости: 1