[iPhone] Evanescence - Imperfection [2017, USA, Alternative, WEB-DLRip, 480p]

 Статистика раздачи 
Размер: 85.56 МБ   |  Зарегистрирован: 31 мар 2018, 16:54   |   .torrent скачан: 0 раз
Сидеров: 7  [ 0 байт/сек ]     Личеров: 2  [ 0 байт/сек ]  
  
Аватара пользователя
Главный редактор
Главный редактор
 
Раздал: 90.01 ТБ
Скачал: 3.78 ТБ
Ратио: 24.248
Сообщения: 274106
Стаж: 9 лет 1 месяц 17 дней
Откуда: Санкт-Петербург

Evanescence / Imperfection
Год выпуска: 2017
Страна: USA
Жанр: Alternative
Продолжительность: 00:06:40
Треклист:
Evanescence - Imperfection
Качество исходника: WEB-DL 480p
Качество: WEB-DLRip
Разрешение: 480p
Формат: M4V
Главы (разбиение по трекам): нет
Видео: AVC 640x358 (2.40:1) 23.976 fps 1 512 kbps
Аудио: Английский (AAC Stereo, 256 Кбит/сек, 48 КГц)
Код: Выделить всё
General
Complete name                            : D:\+Music\uploads_rutracker.org\Evanescence - Imperfection.m4v
Format                                   : MPEG-4
Codec ID                                 : M4V  (M4V /mp42/isom)
File size                                : 85.6 MiB
Duration                                 : 6 min
Overall bit rate mode                    : Variable
Overall bit rate                         : 1 795 kb/s
Movie name                               : Imperfection (Official Video)
Performer                                : Evanescence
Performer/Sorted by                      : Evanescence
Genre                                    : Alternative
ContentType                              : Music Video
Recorded date                            : UTC 2017-10-20 07:00:00
Encoded date                             : UTC 2017-10-18 23:21:36
Tagged date                              : UTC 2017-10-18 23:21:37
Copyright                                : ℗ (C) 2017 Sony Music Entertainment Germany GmbH
Cover                                    : Yes
Rating                                   : Clean
AppleStoreAccount                        : itdmusicru@gmail.com
ownr                                     : itdmusic.com - Paulo
AppleStoreCatalogID                      : 1298250230
AlbumTitleID                             : 42102393
GenreID                                  : 1620
AppleStoreCountry                        : Unknown Country
PurchaseDate                             : 2017-10-27 00:45:18
Title/Sort                               : Imperfection (Official Video)
Flavour                                  : 6:640x480LC-256
ContentRating                            : ||0|
Video
ID                                       : 1
Format                                   : AVC
Format/Info                              : Advanced Video Codec
Format profile                           : Baseline@L3
Format settings, CABAC                   : No
Format settings, ReFrames                : 1 frame
Codec ID                                 : avc1
Codec ID/Info                            : Advanced Video Coding
Duration                                 : 6 min
Bit rate                                 : 1 512 kb/s
Width                                    : 640 pixels
Height                                   : 358 pixels
Display aspect ratio                     : 2.40:1
Frame rate mode                          : Constant
Frame rate                               : 23.976 (24000/1001) FPS
Color space                              : YUV
Chroma subsampling                       : 4:2:0
Bit depth                                : 8 bits
Scan type                                : Progressive
Bits/(Pixel*Frame)                       : 0.275
Stream size                              : 72.1 MiB (84%)
Title                                    : Core Media Video
Language                                 : English
Encoded date                             : UTC 2017-10-18 23:21:36
Tagged date                              : UTC 2017-10-18 23:21:37
Color range                              : Limited
Color primaries                          : BT.601 NTSC
Transfer characteristics                 : BT.709
Matrix coefficients                      : BT.601
Audio
ID                                       : 2
Format                                   : AAC
Format/Info                              : Advanced Audio Codec
Format profile                           : LC
Codec ID                                 : 40
Duration                                 : 6 min
Source duration                          : 6 min
Bit rate mode                            : Variable
Bit rate                                 : 256 kb/s
Maximum bit rate                         : 308 kb/s
Channel(s)                               : 2 channels
Channel positions                        : Front: L R
Sampling rate                            : 48.0 kHz
Frame rate                               : 46.875 FPS (1024 spf)
Compression mode                         : Lossy
Stream size                              : 12.3 MiB (14%)
Source stream size                       : 12.3 MiB (14%)
Title                                    : Core Media Audio
Language                                 : English
Encoded date                             : UTC 2017-10-18 23:21:36
Tagged date                              : UTC 2017-10-18 23:21:37

Evanescence - Lost in Paradise (Lyrics Version)
Не забывайте говорить Спасибо. Не уходите с раздачи!   
Торрент: Зарегистрирован [31 мар 2018, 16:54]
Статус:
Проверен
 
.torrent скачан: 0 раз
Хэш: 525c99c20b74ac7c08a7f231e96e5958a98bdf91
Размер: 85.56 МБ (89 721 282 байт)
   Стать Автором раздачи
   
Цитата
  • Похожие торренты
    Ответы
    Просмотры
    Последнее сообщение

Вернуться в Музыкальное видео для iPod, iPhone, iPad

Кто сейчас на конференции

Сейчас эту тему просматривают: нет зарегистрированных пользователей и гости: 1