[ATV3] Тайна Коко / Coco (Эдриан Молина / Lee Unkrich ) [2017, США, Мультфильм, фэнтези, комедия, детектив, приключения, семейный, музыка, BDRip, HD (1080p)] DUB + Original + sub (rus, eng)

 Статистика раздачи 
Размер: 5.76 ГБ   |  Зарегистрирован: 25 мар 2018, 14:29   |   .torrent скачан: 1 раз
Сидеров: 35  [ 0 байт/сек ]     Личеров: 11  [ 0 байт/сек ]  
  
Аватара пользователя
 
Раздал: 256.39 ГБ
Скачал: 432.89 ГБ
Ратио: 0.672
Сообщения: 213358
Стаж: 8 лет 6 месяцев 7 дней

Тайна Коко / Coco

«The celebration of a lifetime»
8.811 / 10 8.60 / 10
Год выпуска: 2017
Страна: США
Жанр: Mультфильм, фэнтези, комедия, детектив, приключения, семейный, музыка
Продолжительность: 01:45:02
Перевод: Дублированный (iTunes)
Оригинальная аудиодорожка: Есть
Cубтитры: Русские форсированные, Русские, Английские
Режиссёр: Эдриан Молина
Сценарий: Мэттью Олдрич, Эдриан Молина, Ли Анкрич
Продюсер: Дарла К. Андерсон, Мэри Элис Драмм, Джон Лассетер
Оператор: Мэтт Оспбэри, Даниэль Фейнберг
Композитор: Майкл Джаккино
Художник: Харли Джессуп, Tim Evatt
Монтаж: Стив Блум, Ли Анкрич
В ролях: Энтони Гонсалес, Гаэль Гарсиа Берналь, Бенджамин Брэтт, Аланна Юбак, Рене Виктор, Хайме Камиль, Альфонсо Арау, Херберт Сигенса, Габриэль Иглесиас, Ломбардо Бойяр
Сборы в США: $206 480 667
Сборы в мире: + $508 356 743 = $714 837 410
Сборы в России: $9 788 410
Мировая премьера: 20 октября 2017
Премьера (РФ): 23 ноября 2017, «WDSSPR»
Релиз на DVD: 20 марта 2018, «Уолт Дисней Компани СНГ»
Релиз на Blu-Ray: 20 марта 2018, «Уолт Дисней Компани СНГ»
Цифровой релиз: 16 февраля 2018, «Уолт Дисней Компани СНГ»
Описание: 12-летний Мигель живёт в мексиканской деревушке в семье сапожников и тайно мечтает стать музыкантом. Тайно — потому что в его семейном клане музыка считается проклятием. Когда-то его прапрадед оставил свою жену, прапрабабку Мигеля, ради мечты, которая теперь не даёт спокойно жить Мигелю. С тех пор музыкальная тема в семье стала табу. Мигель обнаруживает, что между ним и его любимым певцом Эрнесто де ла Крусом, ныне покойным, существует некая — пока неназванная — связь. Паренёк отправляется к своему кумиру в Страну Мёртвых, где встречает души своих предков. Мигель знакомится там с духом-трикстером по имени Гектор (в облике скелета), который становится его проводником. Вдвоём они отправляются на поиски де ла Круса.
Качество исходника: BDRemux (BlueBird)
Качество: BDRip
Тип: HD (1080p)
Контейнер: M4V
Видео: H.264, 1920x800, 2.40:1, 6 500 Kbps, 23.976 (23976/1000) fps
Аудио 1: Русский/Дублированный (iTunes), AAC / 2.0 / 160 Kbps / 48.0 KHz
Аудио 2: Английский/Оригинальная дорожка , AAC / 2.0 / 160 Kbps / 48.0 KHz
Аудио 3: Русский/Дублированный (iTunes), AC-3 / 5.1 / 384 Kbps / 48.0 KHz
Аудио 4: Английский/Оригинальная дорожка , AC-3 / 5.1 / 640 Kbps / 48.0 KHz
Субтитры 1: Русские форсированные
Субтитры 2: Русские полные
Субтитры 3: Английские полные


Код:
Код: Выделить всё
Sort Name: Coco
XID: Apple:vendor_id:2017-679486
contentID: 1307301491
Copyright: © 2017 Disney/Pixar
Screenwriters: Мэттью Олдрич, Эдриан Молина, Ли Анкрич
Producers: Дарла К. Андерсон, Мэри Элис Драмм, Джон Лассетер
Director: Ли Анкрич, Эдриан Молина
Cast: Энтони Гонсалес, Гаэль Гарсиа Берналь, Бенджамин Брэтт, Аланна Юбак, Рене Виктор, Хайме Камиль, Альфонсо Арау, Херберт Сигенса, Габриэль Иглесиас, Ломбардо Бойяр
Studio: Pixar
Rating Annotation: Rated PG for thematic elements.
Rating: 3
Long Description: 12-летний Мигель живет в мексиканской деревушке в семье сапожников и тайно мечтает стать музыкантом. Тайно - потому что в его семейном клане музыка считается проклятием. Когда-то его прадед оставил свою жену, прабабку Мигеля, ради мечты, которая теперь не дает спокойно жить Мигелю. С тех пор музыкальная тема в семье стала табу. Мигель обнаруживает, что между ним и его любимым певцом Эрнесто де ла Крусом, ныне покойным, существует некая - пока неназванная - связь. Паренек отправляется к своему кумиру в Страну Мертвых, где встречает души своих предков. Коко знакомится там с духом-трикстером по имени Эктор (в облике скелета), который становится его напарником-проводником. Вдвоем они отправляются на поиски де ла Круса.
Description: 12-летний Мигель живет в мексиканской деревушке в семье сапожников и тайно мечтает стать музыкантом. Тайно - потому что в его семейном клане музыка считается проклятием...
Release Date: 2017-10-20T08:00:00Z
Genre: Kids & Family
Artist: Lee Unkrich
Name: Coco (2017)

Код:
Код: Выделить всё
General
Complete name                            : /Users/imac/HandBrake/Coco (1080p HD).m4v
Format                                   : MPEG-4
Codec ID                                 : M4V  (M4V /M4A /mp42/isom)
File size                                : 5.76 GiB
Duration                                 : 1h 45mn
Overall bit rate mode                    : Variable
Overall bit rate                         : 7 852 Kbps
Movie name                               : Coco (2017)
Performer                                : Lee Unkrich
Director                                 : Ли Анкрич / Эдриан Молина
Actor                                    : Энтони Гонсалес / Гаэль Гарсиа Берналь / Бенджамин Брэтт / Аланна Юбак / Рене Виктор / Хайме Камиль / Альфонсо Арау / Херберт Сигенса / Габриэль Иглесиас / Ломбардо Бойяр
Screenplay by                            : Мэттью Олдрич / Эдриан Молина / Ли Анкрич
Producer                                 : Дарла К. Андерсон / Мэри Элис Драмм / Джон Лассетер
Production studio                        : Pixar
Genre                                    : Kids & Family
ContentType                              : Short Film
Description                              : 12-летний Мигель живет в мексиканской деревушке в семье сапожников и тайно мечтает стать музыкантом. Тайно - потому что в его семейном клане музыка считается проклятием...
Recorded date                            : UTC 2017-10-20 08:00:00
Encoded date                             : UTC 2018-02-17 13:36:56
Tagged date                              : UTC 2018-02-17 13:37:46
Copyright                                : © 2017 Disney/Pixar
Cover                                    : Yes
Rating                                   : None
Title/Sort                               : Coco
LongDescription                          : 12-летний Мигель живет в мексиканской деревушке в семье сапожников и тайно мечтает стать музыкантом. Тайно - потому что в его семейном клане музыка считается проклятием. Когда-то его прадед оставил свою жену, прабабку Мигеля, ради мечты, которая теперь не дает спокойно жить Мигелю. С тех пор музыкальная тема в семье стала табу. Мигель обнаруживает, что между ним и его любимым певцом Эрнесто де ла Крусом, ныне покойным, существует некая - пока неназванная - связь. Паренек отправляется к своему кумиру в Страну Мертвых, где встречает души своих предков. Коко знакомится там с духом-трикстером по имени Эктор (в облике скелета), который становится его напарником-проводником. Вдвоем они отправляются на поиски де ла Круса.
AppleStoreCatalogID                      : 1307301491
Vendor                                   : Apple:vendor_id:2017-679486
ContentRating                            : mpaa|PG|200|Rated PG for thematic elements.
Video #1
ID                                       : 1
Format                                   : AVC
Format/Info                              : Advanced Video Codec
Format profile                           : High@L4
Format settings                          : CABAC / 4 Ref Frames
Format settings, CABAC                   : Yes
Format settings, ReFrames                : 4 frames
Codec ID                                 : avc1
Codec ID/Info                            : Advanced Video Coding
Duration                                 : 1h 45mn
Source duration                          : 1h 45mn
Bit rate                                 : 6 500 Kbps
Width                                    : 1 920 pixels
Height                                   : 800 pixels
Display aspect ratio                     : 2.40:1
Frame rate mode                          : Variable
Frame rate                               : 23.976 (23976/1000) fps
Minimum frame rate                       : 15.533 fps
Maximum frame rate                       : 23.981 fps
Color space                              : YUV
Chroma subsampling                       : 4:2:0
Bit depth                                : 8 bits
Scan type                                : Progressive
Bits/(Pixel*Frame)                       : 0.177
Stream size                              : 4.77 GiB (83%)
Source stream size                       : 4.77 GiB (83%)
Title                                    : Main Program
Writing library                          : x264 core 148 r2708 86b7198
Encoding settings                        : cabac=1 / ref=4 / deblock=1:-2:-2 / analyse=0x3:0x133 / me=umh / subme=10 / psy=1 / psy_rd=1.00:0.15 / mixed_ref=1 / me_range=32 / chroma_me=1 / trellis=2 / 8x8dct=1 / cqm=0 / deadzone=21,11 / fast_pskip=1 / chroma_qp_offset=-3 / threads=25 / lookahead_threads=6 / sliced_threads=0 / nr=0 / decimate=0 / interlaced=0 / bluray_compat=0 / constrained_intra=0 / bframes=16 / b_pyramid=2 / b_adapt=2 / b_bias=0 / direct=3 / weightb=1 / open_gop=0 / weightp=2 / keyint=240 / keyint_min=24 / scenecut=40 / intra_refresh=0 / rc_lookahead=40 / rc=2pass / mbtree=1 / bitrate=6500 / ratetol=1.0 / qcomp=0.70 / qpmin=0 / qpmax=69 / qpstep=4 / cplxblur=20.0 / qblur=0.5 / ip_ratio=1.40 / aq=1:1.00
Language                                 : English
Encoded date                             : UTC 2018-02-17 13:36:56
Tagged date                              : UTC 2018-02-17 13:37:11
Color range                              : Limited
Color primaries                          : BT.709
Transfer characteristics                 : BT.709
Matrix coefficients                      : BT.709
Menus                                    : 9,10
Video #2
ID                                       : 10
Format                                   : JPEG
Codec ID                                 : jpeg
Duration                                 : 1h 45mn
Bit rate mode                            : Variable
Bit rate                                 : 1 472 bps
Width                                    : 640 pixels
Height                                   : 266 pixels
Display aspect ratio                     : 2.40:1
Frame rate mode                          : Variable
Frame rate                               : 0.004 fps
Minimum frame rate                       : 0.002 fps
Maximum frame rate                       : 0.014 fps
Color space                              : YUV
Chroma subsampling                       : 4:2:0
Bit depth                                : 8 bits
Compression mode                         : Lossy
Bits/(Pixel*Frame)                       : 2.162
Stream size                              : 1.23 MiB (0%)
Title                                    : Cgapter Images
Language                                 : English
Default                                  : No
Encoded date                             : UTC 2018-02-17 13:37:27
Tagged date                              : UTC 2018-02-17 13:37:28
Menu For                                 : 1
Audio #1
ID                                       : 2
Format                                   : AAC
Format/Info                              : Advanced Audio Codec
Format profile                           : LC
Codec ID                                 : mp4a-40-2
Duration                                 : 1h 45mn
Source duration                          : 1h 45mn
Bit rate mode                            : Variable
Bit rate                                 : 157 Kbps
Maximum bit rate                         : 240 Kbps
Channel(s)                               : 2 channels
Channel positions                        : Front: L R
Sampling rate                            : 48.0 KHz
Frame rate                               : 46.875 fps (1024 SPF)
Compression mode                         : Lossy
Stream size                              : 118 MiB (2%)
Source stream size                       : 118 MiB (2%)
Title                                    : Russian Stereo
Language                                 : Russian
Default                                  : Yes
Alternate group                          : 1
Encoded date                             : UTC 2018-02-17 13:36:56
Tagged date                              : UTC 2018-02-17 13:37:15
Menus                                    : 9
Audio #2
ID                                       : 3
Format                                   : AAC
Format/Info                              : Advanced Audio Codec
Format profile                           : LC
Codec ID                                 : mp4a-40-2
Duration                                 : 1h 45mn
Source duration                          : 1h 45mn
Bit rate mode                            : Variable
Bit rate                                 : 158 Kbps
Maximum bit rate                         : 252 Kbps
Channel(s)                               : 2 channels
Channel positions                        : Front: L R
Sampling rate                            : 48.0 KHz
Frame rate                               : 46.875 fps (1024 SPF)
Compression mode                         : Lossy
Stream size                              : 119 MiB (2%)
Source stream size                       : 119 MiB (2%)
Title                                    : English Stereo
Language                                 : English
Default                                  : No
Alternate group                          : 1
Encoded date                             : UTC 2018-02-17 13:36:56
Tagged date                              : UTC 2018-02-17 13:37:15
Audio #3
ID                                       : 4
Format                                   : AC-3
Format/Info                              : Audio Coding 3
Codec ID                                 : ac-3
Duration                                 : 1h 45mn
Bit rate mode                            : Constant
Bit rate                                 : 384 Kbps
Channel(s)                               : 6 channels
Channel positions                        : Front: L C R, Side: L R, LFE
Sampling rate                            : 48.0 KHz
Frame rate                               : 31.250 fps (1536 SPF)
Bit depth                                : 16 bits
Compression mode                         : Lossy
Stream size                              : 288 MiB (5%)
Title                                    : Russian DD 5.1
Language                                 : Russian
Service kind                             : Complete Main
Default                                  : No
Alternate group                          : 1
Encoded date                             : UTC 2018-02-17 13:36:56
Tagged date                              : UTC 2018-02-17 13:37:07
Audio #4
ID                                       : 5
Format                                   : AC-3
Format/Info                              : Audio Coding 3
Codec ID                                 : ac-3
Duration                                 : 1h 45mn
Bit rate mode                            : Constant
Bit rate                                 : 640 Kbps
Channel(s)                               : 6 channels
Channel positions                        : Front: L C R, Side: L R, LFE
Sampling rate                            : 48.0 KHz
Frame rate                               : 31.250 fps (1536 SPF)
Bit depth                                : 16 bits
Compression mode                         : Lossy
Stream size                              : 481 MiB (8%)
Title                                    : English DD 5.1
Language                                 : English
Service kind                             : Complete Main
Default                                  : No
Alternate group                          : 1
Encoded date                             : UTC 2018-02-17 13:36:56
Tagged date                              : UTC 2018-02-17 13:37:07
Text #1
ID                                       : 6
Format                                   : Timed Text
Muxing mode                              : sbtl
Codec ID                                 : tx3g
Duration                                 : 7mn 21s
Bit rate mode                            : Variable
Bit rate                                 : 2 bps
Stream size                              : 100 Bytes (0%)
Title                                    : Russian forced
Language                                 : Russian
Default                                  : Yes
Forced                                   : No
Alternate group                          : 2
Encoded date                             : UTC 2018-02-17 13:36:56
Tagged date                              : UTC 2018-02-17 13:36:56
Text #2
ID                                       : 7
Format                                   : Timed Text
Muxing mode                              : sbtl
Codec ID                                 : tx3g
Duration                                 : 1h 36mn
Bit rate mode                            : Variable
Bit rate                                 : 104 bps
Stream size                              : 72.9 KiB (0%)
Title                                    : Russian full
Language                                 : Russian
Default                                  : No
Forced                                   : No
Alternate group                          : 2
Encoded date                             : UTC 2018-02-17 13:36:56
Tagged date                              : UTC 2018-02-17 13:36:56
Text #3
ID                                       : 8
Format                                   : Timed Text
Muxing mode                              : sbtl
Codec ID                                 : tx3g
Duration                                 : 1h 38mn
Bit rate mode                            : Variable
Bit rate                                 : 70 bps
Stream size                              : 50.5 KiB (0%)
Title                                    : English full
Language                                 : English
Default                                  : No
Forced                                   : No
Alternate group                          : 2
Encoded date                             : UTC 2018-02-17 13:36:56
Tagged date                              : UTC 2018-02-17 13:36:56
Menu #1
00:00:00.000                             : Chapter 1
00:06:40.200                             : Chapter 2
00:08:41.544                             : Chapter 3
00:11:13.576                             : Chapter 4
00:14:20.310                             : Chapter 5
00:17:06.962                             : Chapter 6
00:18:20.953                             : Chapter 7
00:22:06.011                             : Chapter 8
00:24:19.978                             : Chapter 9
00:27:44.831                             : Chapter 10
00:29:07.922                             : Chapter 11
00:32:15.323                             : Chapter 12
00:35:18.426                             : Chapter 13
00:41:25.527                             : Chapter 14
00:47:04.699                             : Chapter 15
00:50:54.178                             : Chapter 16
00:54:23.888                             : Chapter 17
00:56:45.029                             : Chapter 18
01:01:42.634                             : Chapter 19
01:03:28.156                             : Chapter 20
01:08:58.207                             : Chapter 21
01:15:17.252                             : Chapter 22
01:18:56.773                             : Chapter 23
01:21:31.765                             : Chapter 24
01:24:31.820                             : Chapter 25
01:28:23.477                             : Chapter 26
01:33:14.775                             : Chapter 27
01:36:10.479                             : Chapter 28
Menu #2
ID                                       : 9
Codec ID                                 : text
Duration                                 : 1h 45mn
Language                                 : English
Encoded date                             : UTC 2018-02-17 13:37:15
Tagged date                              : UTC 2018-02-17 13:37:15
Menu For                                 : 2,1
00:00:00.000                             : Chapter 1
00:06:40.200                             : Chapter 2
00:08:41.544                             : Chapter 3
00:11:13.576                             : Chapter 4
00:14:20.310                             : Chapter 5
00:17:06.962                             : Chapter 6
00:18:20.953                             : Chapter 7
00:22:06.011                             : Chapter 8
00:24:19.978                             : Chapter 9
00:27:44.831                             : Chapter 10
00:29:07.922                             : Chapter 11
00:32:15.323                             : Chapter 12
00:35:18.426                             : Chapter 13
00:41:25.527                             : Chapter 14
00:47:04.699                             : Chapter 15
00:50:54.178                             : Chapter 16
00:54:23.888                             : Chapter 17
00:56:45.029                             : Chapter 18
01:01:42.634                             : Chapter 19
01:03:28.156                             : Chapter 20
01:08:58.207                             : Chapter 21
01:15:17.252                             : Chapter 22
01:18:56.773                             : Chapter 23
01:21:31.765                             : Chapter 24
01:24:31.820                             : Chapter 25
01:28:23.477                             : Chapter 26
01:33:14.775                             : Chapter 27
01:36:10.479                             : Chapter 28
Bit rate mode                            : VBR

Код:
Код: Выделить всё
x264 [info]: frame I:1195  Avg QP:15.79  size:239998
x264 [info]: frame P:44571 Avg QP:19.49  size: 64276
x264 [info]: frame B:105331 Avg QP:20.91  size: 18695
x264 [info]: consecutive B-frames:  8.6%  6.1% 14.2% 17.7% 19.7% 31.4%  1.7%  0.2%  0.1%  0.0%  0.0%  0.0%  0.0%  0.0%  0.0%  0.1%  0.1%
x264 [info]: mb I  I16..4: 12.2% 67.5% 20.4%
x264 [info]: mb P  I16..4:  2.1% 10.0%  1.4%  P16..4: 47.5% 18.4% 13.7%  0.7%  0.3%    skip: 5.9%
x264 [info]: mb B  I16..4:  0.2%  0.9%  0.2%  B16..8: 43.6%  8.3%  2.0%  direct: 4.5%  skip:40.4%  L0:43.9% L1:43.3% BI:12.8%
x264 [info]: 8x8 transform intra:72.9% inter:59.5%
x264 [info]: direct mvs  spatial:95.8% temporal:4.2%
x264 [info]: coded y,uvDC,uvAC intra: 84.0% 87.5% 67.8% inter: 24.2% 25.0% 12.1%
x264 [info]: i16 v,h,dc,p: 19% 14% 20% 48%
x264 [info]: i8 v,h,dc,ddl,ddr,vr,hd,vl,hu: 11% 11%  7%  9% 12% 12% 13% 11% 13%
x264 [info]: i4 v,h,dc,ddl,ddr,vr,hd,vl,hu: 10%  9%  5%  9% 15% 14% 14% 11% 13%
x264 [info]: i8c dc,h,v,p: 39% 23% 19% 19%
x264 [info]: Weighted P-Frames: Y:2.1% UV:1.5%
x264 [info]: ref P L0: 61.2% 12.6% 18.2%  7.2%  0.8%  0.0%
x264 [info]: ref B L0: 87.9%  9.9%  2.2%
x264 [info]: ref B L1: 95.9%  4.1%
x264 [info]: kb/s:6500.28




Релиз подготовлен для просмотра на Apple TV, iPad, iPhone, iPod Touch.
Для просмотра данного релиза на компьютере с ОС Windows рекомендуется использовать VLC media player
Не забывайте говорить Спасибо. Не уходите с раздачи!   
Торрент: Зарегистрирован [25 мар 2018, 14:29]
Статус:
Проверен
 
.torrent скачан: 1 раз
Хэш: c9a7b75f31f03db594cda225c6204d6459086e86
Размер: 5.76 ГБ (6 185 331 924 байт)
   Стать Автором раздачи
   
Цитата
  • Похожие торренты
    Ответы
    Просмотры
    Последнее сообщение

Вернуться в Мультфильмы HD для Apple TV

Кто сейчас на конференции

Сейчас эту тему просматривают: нет зарегистрированных пользователей и гости: 1