Одиночка / Thani Oruvan (М. Раджа / M. Raja) [2015, Индия, Боевик, HDRip] Sub Rus + Original (Tamili)

 Статистика раздачи 
Размер: 1.45 ГБ   |  Зарегистрирован: 16 мар 2018, 18:03   |   .torrent скачан: 0 раз
Сидеров: 1  [ 0 байт/сек ]     Личеров: 1  [ 0 байт/сек ]  
  
Аватара пользователя
 
Раздал: 3.35 ТБ
Скачал: 63.98 ГБ
Ратио: 53.661
Сообщения: 197058
Стаж: 1 год 7 месяцев 27 дней

Одиночка / Thani Oruvan

Страна: Индия
Жанр: Боевик
Год выпуска: 2015
Продолжительность: 02:37:34
Перевод: Субтитры
Субтитры: Русские
Оригинальная дорожка: Тамили
Перевод и редакция: Марк1979
Режиссер: М. Раджа / M. Raja
В ролях: Джаям Рави, Наянтара, Арвинд Свами, Мугдха Годсе, Ганеш Венкатраман, Вамси Кришна, Нассер, Тамби Рамайа, Сричаран, Рахул Мадхав
Описание: Противостояние между амбициозным выпускником академии офицеров полиции и гениальным преступником, подмявшим под себя преступный мир Тамилнаду. (Марк1979)
|

Качество видео: HDRip
Формат видео: AVI
Видео: 688x288 (2.39:1), 24.000 fps, XviD build 50 ~1119 kbps avg, 0.23 bit/pixel
Аудио: 48 kHz, AC3 Dolby Digital, 2/0 (L,R) ch, ~192 kbps
Формат субтитров: hardsub (неотключаемые, вшитые в картинку)
Сэмпл
Релиз:
Перевод, редакция: Марк1979 (спасибо!)
Риппер: soso4eg




General
Complete name : F:\1_1\Odinochka.2015.HDRip.XviD.BwTorrents.avi
Format : AVI
Format/Info : Audio Video Interleave
File size : 1.45 GiB
Duration : 2h 37mn
Overall bit rate : 1 321 Kbps
Movie name : Odinochka.2015.HDRip.XviD.BwTorrents
Writing application : VirtualDubMod 1.5.10.2 (build 2540/release)
Video
ID : 0
Format : MPEG-4 Visual
Format profile : Advanced Simple@L5
Format settings, BVOP : 1
Format settings, QPel : No
Format settings, GMC : No warppoints
Format settings, Matrix : Default (H.263)
Codec ID : XVID
Codec ID/Hint : XviD
Duration : 2h 37mn
Bit rate : 1 120 Kbps
Width : 688 pixels
Height : 288 pixels
Display aspect ratio : 2.40:1
Frame rate : 24.000 fps
Color space : YUV
Chroma subsampling : 4:2:0
Bit depth : 8 bits
Scan type : Progressive
Compression mode : Lossy
Bits/(Pixel*Frame) : 0.235
Stream size : 1.23 GiB (85%)
Writing library : XviD 1.2.1 (UTC 2008-12-04)
Audio
ID : 1
Format : AC-3
Format/Info : Audio Coding 3
Mode extension : CM (complete main)
Format settings, Endianness : Big
Codec ID : 2000
Duration : 2h 37mn
Bit rate mode : Constant
Bit rate : 192 Kbps
Channel count : 2 channels
Channel positions : Front: L R
Sampling rate : 48.0 KHz
Bit depth : 16 bits
Compression mode : Lossy
Stream size : 216 MiB (15%)
Alignment : Split accross interleaves
Interleave, duration : 42 ms (1.00 video frame)
Interleave, preload duration : 500 ms

1
00:00:48,700 --> 00:00:50,326
"Скажи, кто твой враг"
2
00:00:50,618 --> 00:00:52,328
"И я скажу, кто ты"
3
00:00:54,781 --> 00:00:57,158
Посмотрите на этого чудака!
4
00:00:57,367 --> 00:00:59,535
Стоять! Если я поймаю вас, вам конец!
5
00:00:59,702 --> 00:01:02,038
Послушай, Сенгал! - Что надо?
6
00:01:02,205 --> 00:01:03,790
У твоей жены схватки.
7
00:01:03,957 --> 00:01:06,084
Надо отвезти ее в больницу. Слезай!
8
00:01:06,292 --> 00:01:09,295
Кто тогда завяжет флаг?
- Попроси своего лидера.
9
00:01:09,671 --> 00:01:12,215
Ты не имеешь права говорить
о моем лидере! Свали!
10
00:01:12,382 --> 00:01:15,593
Жаль, что моя дочь
вышла за этого дурака.
11
00:01:15,760 --> 00:01:18,304
Смотри! Наш лидер прибыл! - Что?
12
00:01:18,763 --> 00:01:20,223
Интервью было отличным.
13
00:01:20,390 --> 00:01:22,558
Этого не достаточно. - Хорошо, сэр.
- Убедись, что у него есть моя фотография ...
14
00:01:22,684 --> 00:01:23,601
... где я стою рядом с членами группы.
- Хорошо, сэр.
15
00:01:23,768 --> 00:01:25,061
Похоже, наш лидер прибыл очень рано.
16
00:01:25,228 --> 00:01:26,437
Кто здесь самый преданный
последователь нашей партии?
17
00:01:26,604 --> 00:01:28,147
Это, Сенгалвараян.
18
00:01:28,314 --> 00:01:30,024
Что это за имя такое?
19
00:01:31,109 --> 00:01:32,402
Сенгалвараян!
20
00:01:32,902 --> 00:01:34,404
Вы назвали мое имя!
- Иди сюда.


Не забывайте говорить Спасибо. Не уходите с раздачи!   
Торрент: Зарегистрирован [16 мар 2018, 18:03] Для скачивания .torrent
необходима регистрация
Или скачать с помощью
MediaGet
Статус:
Проверен
 
.torrent скачан: 0 раз
Хэш: 7927aece0dd1e958b19153ba9d56a907cd067fbe
Размер: 1.45 ГБ (1 561 223 168 байт)
   Стать Автором раздачи
   
Цитата

Вернуться в Индийское кино

Кто сейчас на конференции

Сейчас эту тему просматривают: нет зарегистрированных пользователей и гости: 1