Дангал (Борьба) / Dangal (2016) BDRip [H.265/1080p-LQ] [10-bit]

 Статистика раздачи 
Размер: 8.29 ГБ   |  Зарегистрирован: 09 янв 2018, 18:20   |   .torrent скачан: 0 раз
Сидеров: 0  [ 0 байт/сек ]     Личеров: 0  [ 0 байт/сек ]  
  
Аватара пользователя
Главный редактор
Главный редактор
Я на сайте
Автор темы
Раздал: 10.1 ТБ
Скачал: 1.78 ТБ
Ратио: 6.104
Сообщения: 19603
Стаж: 7 лет 2 месяца 24 дня
Откуда: Санкт-Петербург

Дангал (Борьба) / Dangal (2016) BDRip

Производство: Индия / Aamir Khan Productions Ltd., Walt Disney Pictures
Жанр: Драма, Биография, Спорт

Режиссер: Нитеш Тивари
Актеры: Аамир Кхан, Sakshi Tanwar, Бейби Сана, Sanya Malhotra, Aparshakti Khurana, Zaira Wasim, Suhani Bhatnagar, Ritwik Sahore, Гириш Кулкарни, Анураг Арора

Описание:
История реально существующего спортсмена Махавира Сингха Пхогата, который по причине бедности был вынужден бросить спортивную борьбу, но поклялся воспитать сына, который станет в будущем олимпийским чемпионом. Но вот досада — у них с женой родились четыре дочки. Отец сначала отчаялся, но потом, увидев, что подросшие девчонки поколачивают одноклассников, решил всё же сделать из них спортсменок. Тренер из отца получился отменный.

http://www.imdb.com/title/tt5074352/?ref_=plg_rt_1

Релиз от: Goor80

Продолжительность: 02:41:01
Качество видео: BDRip
Перевод: Многоголосый закадровый (FocusStudio)
Субтитры: отсутствуют

Видео: HEVC/H.265, 1920x800, ~6733 Kbps
Аудио: AC3, 6 ch, 640 Kbps
Код: Выделить всё
Общее
Уникальный идентификатор                 : 179468229231532641603233276023723882350 (0x870452DC51EA5B92866046B7A3D9776E)
Полное имя                               : E:\Video\Дангал (Dangal).mkv
Формат                                   : Matroska
Версия формата                           : Version 4 / Version 2
Размер файла                             : 8,29 Гбайт
Продолжительность                        : 2 ч. 41 м.
Общий поток                              : 7374 Кбит/сек
Название фильма                          : Дангал / Борьба / Dangal
Дата кодирования                         : UTC 2017-11-29 02:07:55
Программа кодирования                    : mkvmerge v17.0.0 ('Be Ur Friend') 64-bit
Библиотека кодирования                   : libebml v1.3.5 + libmatroska v1.4.8
Авторское право                          : Encoded by Goor80
Released by                              : Buba5473 for NNM-Club

Видео
Идентификатор                            : 1
Формат                                   : HEVC
Формат/Информация                        : High Efficiency Video Coding
Профиль формата                          : Main [email protected]@Main
Идентификатор кодека                     : V_MPEGH/ISO/HEVC
Продолжительность                        : 2 ч. 41 м.
Битрейт                                  : 6733 Кбит/сек
Ширина                                   : 1920 пикселей
Высота                                   : 800 пикселей
Соотношение сторон                       : 2,40:1
Режим частоты кадров                     : Постоянный
Частота кадров                           : 24,000 кадра/сек
Цветовое пространство                    : YUV
Субдискретизация насыщенности            : 4:2:0
Битовая глубина                          : 10 бит
Бит/(Пиксели*Кадры)                      : 0.183
Размер потока                            : 7,57 Гбайт (91%)
Default                                  : Да
Forced                                   : Нет

Аудио
Идентификатор                            : 2
Формат                                   : AC-3
Формат/Информация                        : Audio Coding 3
Параметр Endianness формата              : Big
Идентификатор кодека                     : A_AC3
Продолжительность                        : 2 ч. 41 м.
Вид битрейта                             : Постоянный
Битрейт                                  : 640 Кбит/сек
Каналы                                   : 6 каналов
Расположение каналов                     : Front: L C R, Side: L R, LFE
Частота                                  : 48,0 КГц
Частота кадров                           : 31,250 кадров/сек (1536 spf)
Битовая глубина                          : 16 бит
Метод сжатия                             : С потерями
Размер потока                            : 737 Мбайт (9%)
Заголовок                                : Перевод: Профессиональный многоголосый (FocusStudio)
Язык                                     : Russian
ServiceKind/String                       : Complete Main
Default                                  : Да
Forced                                   : Нет

XMP
Xmp.video.FileName           : E:\Video\Дангал (Dangal).mkv
Xmp.video.FileSize           : -9.53674e-007
Xmp.video.MimeType           : video/matroska
Xmp.video.EBMLVersion        : 1
Xmp.video.EBMLReadVersion    : 1
Xmp.video.DocType            : matroska
Xmp.video.DocTypeVersion     : 4
Xmp.video.DocTypeReadVersion : 2
Xmp.video.TimecodeScale      : 0.001
Xmp.video.MuxingApp          : libebml v1.3.5 + libmatroska v1.4.8
Xmp.video.WritingApp         : mkvmerge v17.0.0 ('Be Ur Friend') 64-bit
Xmp.video.Duration           : 9661056
Xmp.video.DateUTC            : 533614075
Xmp.video.Title              : Дангал / Борьба / Dangal
Xmp.video.TotalStream        : 18
Xmp.video.TrackLacing        : No
Xmp.video.Codec              : V_MPEGH/ISO/HEVC
Xmp.video.TrackLang          : und
Xmp.video.Width              : 1920
Xmp.video.Height             : 800
Xmp.video.FrameRate          : 24
Xmp.audio.Compressor         : A_AC3
Xmp.audio.DefaultDuration    : 32000
Xmp.audio.TrackLang          : rus
Xmp.video.TrackName          : Перевод: Профессиональный многоголосый (FocusStudio)
Xmp.audio.SampleRate         : 48000
Xmp.video.AspectRatio        : 2.4
H.265/HEVC (High Efficiency Video Coding) - это новый стандарт кодирования видео.
*Рипы в фомате HEVC, в настоящее время не поддерживается большинством аппаратных проигрывателей.
*Для корректного воспроизведения может потребоваться обновление ПО.
*Стандарт H.265/HEVC является логическим продолжением стандарта H.264/AVC (Advanced Video Coding), и характеризуется более эффективными алгоритмами сжатия, а также поддержкой высокого разрешения вплоть до 8K UHD (8192x4320). Первая версия стандарта H.265 была опубликована в начале 2013 года.

Любителям решения из коробки - установить последнюю версию на выбор:
Media Player Classic - Black Edition (MPC-BE)
VLC media player
Daum Pot Player
GOM Media Player

Любителям WMP и других плееров, использующих по умолчанию для воспроизведения системные кодеки+сплитеры - установить K-Lite Codec Pack версии 10.1.0 и выше.
Любимые плееры, не использующии по умолчанию для воспроизведения системные кодеки+сплитеры, нужно перенастроить на использование оных.

Скриншоты:




Время раздачи: с 11:00 до 21:00 по Новосибирску (UTC +7) (до появления первых 3-5 скачавших)
   
Торрент: Зарегистрирован [09 янв 2018, 18:20] Индийское кино Скачать торрент Магнет ссылка
Скачать торрент
[ Размер 21.53 КБ / Просмотров 0 ]
Статус:
Проверен
 
.torrent скачан: 0 раз
Размер: 8.29 ГБ (8 905 628 928 байт)
   
 
 
Цитата
  • Похожие торренты
    Ответы
    Просмотры
    Последнее сообщение

Вернуться в Индийское кино

Кто сейчас на конференции

Сейчас эту тему просматривают: нет зарегистрированных пользователей и гости: 1