Игра с огнем / Jil (2015) WEBRip [VO]

 Статистика раздачи 
Размер: 1.92 ГБ   |  Зарегистрирован: 09 янв 2018, 18:19   |   .torrent скачан: 0 раз
Сидеров: 0  [ 0 байт/сек ]     Личеров: 0  [ 0 байт/сек ]  
  
Аватара пользователя
Главный редактор
Главный редактор
Я на сайте
Автор темы
Раздал: 10.1 ТБ
Скачал: 1.78 ТБ
Ратио: 6.104
Сообщения: 19603
Стаж: 7 лет 2 месяца 24 дня
Откуда: Санкт-Петербург
СообщениеДобавлено: 30 дек 2017, 22:51


Игра с огнем / Jil (2015) WEBRip

Производство: Индия
Жанр: Драма,Боевик

Режиссер: K.K. Radhakrishna Kumar
Актеры: Тоттемпуди Гопичанд, Кабир, Раши Кханна

Описание:
Доблестный офицер пожарной службы вступает в схватку с доном мумбайской мафии.

http://www.imdb.com/title/tt4523622/?ref_=plg_rt_1

Релиз от: bwtorrents

Продолжительность: 02:13:04
Качество видео: WEBRip
Перевод: Любительский (одноголосый закадровый)
Субтитры: Русские (в начале фильма, неотключаемые)

Видео: Xvid, 720х[email protected], ~1599 Kbps
Аудио #1: AC3, 2 ch, 224 Kbps - Русский
Аудио #2: AC3, 6 ch, 224 Kbps - Оригинал
Код: Выделить всё
Общее
Полное имя                               : J:\Igra.S.Ognem.2015.WEBHDRip.avi
Формат                                   : AVI
Формат/Информация                        : Audio Video Interleave
Профиль формата                          : OpenDML
Размер файла                             : 1,92 Гбайт
Продолжительность                        : 2 ч. 13 м.
Общий поток                              : 2062 Кбит/сек
Название фильма                          : MAZE HDRelease
Программа кодирования                    : Lavf57.71.100

Видео
Идентификатор                            : 0
Формат                                   : MPEG-4 Visual
Профиль формата                          : Advanced [email protected]
Параметр BVOP формата                    : 1
Параметр QPel формата                    : Нет
Параметр GMC формата                     : Без точки перехода
Параметр матрицы формата                 : Default (H.263)
Идентификатор кодека                     : XVID
Идентификатор кодека/Подсказка           : XviD
Продолжительность                        : 2 ч. 13 м.
Битрейт                                  : 1599 Кбит/сек
Ширина                                   : 720 пикселей
Высота                                   : 420 пикселей
Соотношение сторон                       : 2,35:1
Частота кадров                           : 29,970 (30000/1001) кадров/сек
Цветовое пространство                    : YUV
Субдискретизация насыщенности            : 4:2:0
Битовая глубина                          : 8 бит
Тип развёртки                            : Прогрессивная
Метод сжатия                             : С потерями
Бит/(Пиксели*Кадры)                      : 0.176
Размер потока                            : 1,49 Гбайт (77%)
Заголовок                                : MAZE HDRelease
Библиотека кодирования                   : XviD 67

Аудио #1
Идентификатор                            : 1
Формат                                   : AC-3
Формат/Информация                        : Audio Coding 3
Расширение режима                        : CM (complete main)
Параметр Endianness формата              : Big
Идентификатор кодека                     : 2000
Продолжительность                        : 2 ч. 13 м.
Вид битрейта                             : Постоянный
Битрейт                                  : 224 Кбит/сек
Каналы                                   : 2 канала
Расположение каналов                     : Front: L R
Частота                                  : 44,1 КГц
Частота кадров                           : 28,711 кадров/сек (1536 spf)
Битовая глубина                          : 16 бит
Метод сжатия                             : С потерями
Размер потока                            : 213 Мбайт (11%)
Выравнивание                             : Соединение по промежуткам
Продолжительность промежутка             : 35  мс. (1,04 видеокадр)
Заголовок                                : AAC, L1, BwTorrents

Аудио #2
Идентификатор                            : 2
Формат                                   : AC-3
Формат/Информация                        : Audio Coding 3
Расширение режима                        : CM (complete main)
Параметр Endianness формата              : Big
Идентификатор кодека                     : 2000
Продолжительность                        : 2 ч. 13 м.
Вид битрейта                             : Постоянный
Битрейт                                  : 224 Кбит/сек
Каналы                                   : 6 каналов
Расположение каналов                     : Front: L C R, Side: L R, LFE
Частота                                  : 44,1 КГц
Частота кадров                           : 28,711 кадров/сек (1536 spf)
Битовая глубина                          : 16 бит
Метод сжатия                             : С потерями
Размер потока                            : 213 Мбайт (11%)
Выравнивание                             : Соединение по промежуткам
Продолжительность промежутка             : 35  мс. (1,04 видеокадр)
Заголовок                                : DD5.1 - MAZE HDRelease

Скриншоты:




Время раздачи: Пн-Пт с 18:00 до 22:00, Сб-Вс с 09:00 до 22:30 (до появления первых 3-5 скачавших)
   
Торрент: Зарегистрирован [09 янв 2018, 18:19] Индийское кино Скачать торрент Магнет ссылка
Скачать торрент
[ Размер 20.06 КБ / Просмотров 0 ]
Статус:
Проверен
 
.torrent скачан: 0 раз
Размер: 1.92 ГБ (2 060 012 390 байт)
   
 
 
Цитата
  • Похожие торренты
    Ответы
    Просмотры
    Последнее сообщение

Вернуться в Индийское кино

Кто сейчас на конференции

Сейчас эту тему просматривают: нет зарегистрированных пользователей и гости: 1