Мужской разговор / Soukhyam (2015) WEBRip [MVO]

 Статистика раздачи 
Размер: 1.63 ГБ   |  Зарегистрирован: 09 янв 2018, 17:19   |   .torrent скачан: 2 раз
Сидеров: 5  [ 0 байт/сек ]     Личеров: 2  [ 0 байт/сек ]  
  
Аватара пользователя
Главный редактор
Главный редактор
 
Раздал: 37.94 ТБ
Скачал: 2.39 ТБ
Ратио: 16.283
Сообщения: 121952
Стаж: 7 лет 8 месяцев 27 дней
Откуда: Санкт-Петербург
СообщениеДобавлено: 31 дек 2017, 17:50


Мужской разговор / Soukhyam (2015) WEBRip

Производство: Индия
Жанр: Боевик, Мелодрама

Режиссер: А.С. Рави Кумар Човдари
Продюсер: Ренгараджан Джайпракаш
Актеры: Regina Cassandra, Тоттемпуди Гопичанд

Описание:
Беззаботный Сину влюбляется в поезде в красивую попутчицу, и, даже не зная ее имени, тут же делает ей предложение. Но отец Шайладжи влиятельный политик из Калькутты, который хочет, чтобы его дочь вышла замуж за сына Главного министра. Вскоре Сину обещает местному мафиози похитить девушку, на которой хочет жениться его сын. Потрясающе, но Шайладжа оказывается именно той девушкой, в которую влюблен сам Сину...

http://www.imdb.com/title/tt5295664/?ref_=plg_rt_1

Релиз от: bwtorrents

Продолжительность: 02:07:42
Качество видео: WEBRip
Перевод: Любительский (закадровый, многоголосый) - Студия Колобок
Субтитры: Русские, только на песни (керелис)

Видео: Xvid, 720х[email protected], ~1600 Kbps
Аудио: AC3, 2 ch, 224 Kbps
Код: Выделить всё
Общее
Полное имя                               : J:\Muzhskoj.razgovor.2015.WEBRip.avi
Формат                                   : AVI
Формат/Информация                        : Audio Video Interleave
Профиль формата                          : OpenDML
Размер файла                             : 1,63 Гбайт
Продолжительность                        : 2 ч. 7 м.
Общий поток                              : 1831 Кбит/сек
Название фильма                          : Мужской разговор / Soukhyam / Mard Ki Zaban 2 (2015)
Программа кодирования                    : Lavf57.71.100

Видео
Идентификатор                            : 0
Формат                                   : MPEG-4 Visual
Профиль формата                          : Advanced [email protected]
Параметр BVOP формата                    : 1
Параметр QPel формата                    : Нет
Параметр GMC формата                     : Без точки перехода
Параметр матрицы формата                 : Default (H.263)
Идентификатор кодека                     : XVID
Идентификатор кодека/Подсказка           : XviD
Продолжительность                        : 2 ч. 7 м.
Битрейт                                  : 1600 Кбит/сек
Ширина                                   : 720 пикселей
Высота                                   : 420 пикселей
Соотношение сторон                       : 2,35:1
Частота кадров                           : 25,000 кадров/сек
Цветовое пространство                    : YUV
Субдискретизация насыщенности            : 4:2:0
Битовая глубина                          : 8 бит
Тип развёртки                            : Прогрессивная
Метод сжатия                             : С потерями
Бит/(Пиксели*Кадры)                      : 0.212
Размер потока                            : 1,42 Гбайт (87%)
Заголовок                                : Мужской разговор / Soukhyam / Mard Ki Zaban 2 (2015)
Библиотека кодирования                   : XviD 67

Аудио
Идентификатор                            : 1
Формат                                   : AC-3
Формат/Информация                        : Audio Coding 3
Расширение режима                        : CM (complete main)
Параметр Endianness формата              : Big
Идентификатор кодека                     : 2000
Продолжительность                        : 2 ч. 7 м.
Вид битрейта                             : Постоянный
Битрейт                                  : 224 Кбит/сек
Каналы                                   : 2 канала
Расположение каналов                     : Front: L R
Частота                                  : 48,0 КГц
Частота кадров                           : 31,250 кадров/сек (1536 spf)
Битовая глубина                          : 16 бит
Метод сжатия                             : С потерями
Размер потока                            : 205 Мбайт (12%)
Выравнивание                             : Соединение по промежуткам
Продолжительность промежутка             : 32  мс. (0,80 видеокадр)
Заголовок                                : Мужской разговор / Soukhyam / Mard Ki Zaban 2 (2015)

Скриншоты:




Время раздачи: Пн-Пт с 18:00 до 22:00, Сб-Вс с 09:00 до 22:30 (до появления первых 3-5 скачавших)
   
Торрент: Зарегистрирован [09 янв 2018, 17:19] Индийское кино Скачать торрент Магнет ссылка
Скачать торрент
[ Размер 17.23 КБ / Просмотров 46 ]
Статус:
Проверен
 
.torrent скачан: 2 раз
Размер: 1.63 ГБ (1 754 117 274 байт)
   Стать Автором раздачи
 
 
Цитата

Вернуться в Индийское кино

Кто сейчас на конференции

Сейчас эту тему просматривают: нет зарегистрированных пользователей и гости: 1