Изумление (Фокусник) / Mersal (2017) WEBRip [MVO]

 Статистика раздачи 
Размер: 2.13 ГБ   |  Зарегистрирован: 09 янв 2018, 17:19   |   .torrent скачан: 10 раз
Сидеров: 32  [ 0 байт/сек ]     Личеров: 12  [ 0 байт/сек ]  
  
Аватара пользователя
Главный редактор
Главный редактор
 
Раздал: 37.94 ТБ
Скачал: 2.39 ТБ
Ратио: 16.283
Сообщения: 121952
Стаж: 7 лет 8 месяцев 27 дней
Откуда: Санкт-Петербург

Изумление (Фокусник) / Mersal (2017) WEBRip

Производство: Индия
Жанр: Фэнтези, Боевик, Триллер, Драма

Режиссер: Атли
Продюсер: Х. Мурали, N. Ramasamy, Hema Rukmani
Актеры: Виджай, Каджал Агарвал, Саманта Рут Прабху, Нитья Менон, Вадивелу, С. Дж. Сурья

Описание:
Мааран - честный врач, который борется с коррупцией, Ветри - фокусник, жаждущий мести. И, лишь встретившись вместе, они узнают об их общем враге, который навсегда их изменил их жизни...

http://www.imdb.com/title/tt6485666/?ref_=plg_rt_1
Мировая премьера: 17 октября 2017

Релиз от: Студия Колобок

Продолжительность: 02:49:13
Качество видео: WEBRip
Перевод: Любительский (закадровый, двухголосый)
Автор перевода: керелис
Субтитры: отсутствуют

Видео: Xvid, 720х[email protected], ~1597 Kbps
Аудио: AC3, 2 ch, 192 Kbps
Код: Выделить всё
Общее
Полное имя                               : F:\разное\India\виджай\Fokusnik.2017.WEBRip.avi
Формат                                   : AVI
Формат/Информация                        : Audio Video Interleave
Профиль формата                          : OpenDML
Размер файла                             : 2,13 Гбайт
Продолжительность                        : 2 ч. 49 м.
Общий поток                              : 1800 Кбит/сек
Название фильма                          : Фокусник / Mersal (2017)
Программа кодирования                    : Lavf57.71.100

Видео
Идентификатор                            : 0
Формат                                   : MPEG-4 Visual
Профиль формата                          : Advanced [email protected]
Параметр BVOP формата                    : 1
Параметр QPel формата                    : Нет
Параметр GMC формата                     : Без точки перехода
Параметр матрицы формата                 : Default (H.263)
Идентификатор кодека                     : XVID
Идентификатор кодека/Подсказка           : XviD
Продолжительность                        : 2 ч. 49 м.
Битрейт                                  : 1597 Кбит/сек
Ширина                                   : 720 пикселей
Высота                                   : 420 пикселей
Соотношение сторон                       : 2,2:1
Частота кадров                           : 23,976 (24000/1001) кадра/сек
Цветовое пространство                    : YUV
Субдискретизация насыщенности            : 4:2:0
Битовая глубина                          : 8 бит
Тип развёртки                            : Прогрессивная
Метод сжатия                             : С потерями
Бит/(Пиксели*Кадры)                      : 0.220
Размер потока                            : 1,89 Гбайт (89%)
Заголовок                                : Фокусник / Mersal (2017)
Библиотека кодирования                   : XviD 67

Аудио
Идентификатор                            : 1
Формат                                   : AC-3
Формат/Информация                        : Audio Coding 3
Расширение режима                        : CM (complete main)
Параметр Endianness формата              : Big
Идентификатор кодека                     : 2000
Продолжительность                        : 2 ч. 49 м.
Вид битрейта                             : Постоянный
Битрейт                                  : 192 Кбит/сек
Каналы                                   : 2 канала
Расположение каналов                     : Front: L R
Частота                                  : 48,0 КГц
Частота кадров                           : 31,250 кадров/сек (1536 spf)
Битовая глубина                          : 16 бит
Метод сжатия                             : С потерями
Размер потока                            : 232 Мбайт (11%)
Выравнивание                             : Соединение по промежуткам
Продолжительность промежутка             : 32  мс. (0,77 видеокадр)
Заголовок                                : Фокусник / Mersal (2017)
Скриншоты:




Время раздачи: Пн-Пт с 18:00 до 22:00, Сб-Вс с 09:00 до 22:30 (до появления первых 3-5 скачавших)
   
Торрент: Зарегистрирован [09 янв 2018, 17:19] Индийское кино Скачать торрент Магнет ссылка
Скачать торрент
[ Размер 11.53 КБ / Просмотров 100 ]
Статус:
Проверен
 
.torrent скачан: 10 раз
Размер: 2.13 ГБ (2 284 200 894 байт)
   Стать Автором раздачи
 
 
Цитата
  • Похожие торренты
    Ответы
    Просмотры
    Последнее сообщение

Вернуться в Индийское кино

Кто сейчас на конференции

Сейчас эту тему просматривают: нет зарегистрированных пользователей и гости: 1