Мое имя Клоун / Mera Naam Joker (1970) BDRip [H.264]

 Статистика раздачи 
Размер: 5.37 ГБ   |  Зарегистрирован: 09 янв 2018, 17:19   |   .torrent скачан: 0 раз
Сидеров: 0  [ 0 байт/сек ]     Личеров: 4  [ 0 байт/сек ]  
  
Аватара пользователя
Главный редактор
Главный редактор
 
Раздал: 37.94 ТБ
Скачал: 2.39 ТБ
Ратио: 16.283
Сообщения: 121952
Стаж: 7 лет 8 месяцев 27 дней
Откуда: Санкт-Петербург
СообщениеДобавлено: 22 дек 2017, 11:05


Мое имя Клоун / Mera Naam Joker (1970) BDRip [H.264]

Производство: Индия / R.K. Films Ltd.
Жанр: Мелодрама

Режиссер: Радж Капур
Продюсер: Радж Капур
Актеры: Радж Капур, Риши Капур, Манодж Кумар, Сими Гаревал, Ачала Сачдев, Дхармендра, Дара Сингх, Эдуард Середа, Ксения Рябинкина, Раджендра Кумар

Описание:
Клоун Раджу дает последнее представление, потому что предчувствует близкую смерть. Он приглашает на спектакль всех, кто ему был дорог, кого он когда-то любил. Перед нами проходит вся его жизнь: жизнь клоуна — человека, который танцует и поет.

http://www.imdb.com/title/tt0066070/?ref_=plg_rt_1
Возраст: 0+ (для любой зрительской аудитории)

Релиз от: Охрана (NNMCLUB)
Продолжительность: 04:09:34
Качество видео: BDRip
Перевод: Дублированный, двуголосый закадровый
Субтитры: Отсутствуют

Видео: AVC/H.264, 1024x576, ~2500 Kbps
Аудио 1: Русский, AC3, 2 ch, 192 Kbps, 48.0 kHz (Dub, киностудия «Ленфильм»)
Аудио 2: Русский, AC3, 2 ch, 192 Kbps, 48.0 kHz (DVO, R5 )
Аудио 3: Хинди, AC3, 2 ch, 192 Kbps, 48.0 kHz
Код: Выделить всё
General
Unique ID                                : 194014472959707323523360209171315317458 (0x91F5D40C3D5387309833BF02CD425AD2)
Complete name                            : F:\Downloads\Мое имя Клоун. 1970. NNMCLUB.mkv
Format                                   : Matroska
Format version                           : Version 4 / Version 2
File size                                : 5.37 GiB
Duration                                 : 4h 9mn
Overall bit rate                         : 3 078 Kbps
Encoded date                             : UTC 2017-12-20 13:53:12
Writing application                      : mkvmerge v7.0.0 ('Where We Going') 32bit built on Jun  9 2014 15:08:34
Writing library                          : libebml v1.3.0 + libmatroska v1.4.1
DURATION                                 : 04:09:34.272000000
NUMBER_OF_FRAMES                         : 467946
NUMBER_OF_BYTES                          : 359382528
_STATISTICS_WRITING_APP                  : mkvmerge v7.0.0 ('Where We Going') 32bit built on Jun  9 2014 15:08:34
_STATISTICS_WRITING_DATE_UTC             : 2017-12-20 13:53:12
_STATISTICS_TAGS                         : BPS DURATION NUMBER_OF_FRAMES NUMBER_OF_BYTES

Video
ID                                       : 1
Format                                   : AVC
Format/Info                              : Advanced Video Codec
Format profile                           : [url=http://nnm-club.name/mailto:[email protected]][email protected][/url]
Format settings, CABAC                   : Yes
Format settings, ReFrames                : 9 frames
Codec ID                                 : V_MPEG4/ISO/AVC
Duration                                 : 4h 9mn
Bit rate                                 : 2 500 Kbps
Width                                    : 1 024 pixels
Height                                   : 576 pixels
Display aspect ratio                     : 16:9
Frame rate mode                          : Constant
Frame rate                               : 24.000 fps
Color space                              : YUV
Chroma subsampling                       : 4:2:0
Bit depth                                : 8 bits
Scan type                                : Progressive
Bits/(Pixel*Frame)                       : 0.177
Stream size                              : 4.26 GiB (79%)
Title                                    : Mera Naam Joker
Writing library                          : x264 core 125 r2208 d9d2288
Encoding settings                        : cabac=1 / ref=9 / deblock=1:-1:-1 / analyse=0x3:0x133 / me=umh / subme=10 / psy=1 / psy_rd=1.00:0.10 / mixed_ref=1 / me_range=32 / chroma_me=1 / trellis=2 / 8x8dct=1 / cqm=0 / deadzone=21,11 / fast_pskip=0 / chroma_qp_offset=-3 / threads=6 / lookahead_threads=1 / sliced_threads=0 / nr=0 / decimate=0 / interlaced=0 / bluray_compat=0 / constrained_intra=0 / bframes=7 / b_pyramid=2 / b_adapt=2 / b_bias=0 / direct=3 / weightb=1 / open_gop=0 / weightp=2 / keyint=250 / keyint_min=25 / scenecut=40 / intra_refresh=0 / rc_lookahead=60 / rc=2pass / mbtree=1 / bitrate=2500 / ratetol=1.0 / qcomp=0.60 / qpmin=0 / qpmax=69 / qpstep=4 / cplxblur=20.0 / qblur=0.5 / ip_ratio=1.40 / aq=1:1.00
Language                                 : Hindi
Default                                  : Yes
Forced                                   : No

Audio #1
ID                                       : 2
Format                                   : AC-3
Format/Info                              : Audio Coding 3
Mode extension                           : CM (complete main)
Format settings, Endianness              : Big
Codec ID                                 : A_AC3
Duration                                 : 4h 9mn
Bit rate mode                            : Constant
Bit rate                                 : 192 Kbps
Channel(s)                               : 2 channels
Channel positions                        : Front: L R
Sampling rate                            : 48.0 KHz
Bit depth                                : 16 bits
Compression mode                         : Lossy
Stream size                              : 343 MiB (6%)
Title                                    : Дубляж, Ленфильм
Language                                 : Russian
Default                                  : Yes
Forced                                   : No

Audio #2
ID                                       : 3
Format                                   : AC-3
Format/Info                              : Audio Coding 3
Mode extension                           : CM (complete main)
Format settings, Endianness              : Big
Codec ID                                 : A_AC3
Duration                                 : 4h 9mn
Bit rate mode                            : Constant
Bit rate                                 : 192 Kbps
Channel(s)                               : 2 channels
Channel positions                        : Front: L R
Sampling rate                            : 48.0 KHz
Bit depth                                : 16 bits
Compression mode                         : Lossy
Stream size                              : 343 MiB (6%)
Title                                    : Двуголосый закадровый
Language                                 : Russian
Default                                  : No
Forced                                   : No

Audio #3
ID                                       : 4
Format                                   : AC-3
Format/Info                              : Audio Coding 3
Mode extension                           : CM (complete main)
Format settings, Endianness              : Big
Codec ID                                 : A_AC3
Duration                                 : 4h 9mn
Bit rate mode                            : Constant
Bit rate                                 : 192 Kbps
Channel(s)                               : 2 channels
Channel positions                        : Front: L R
Sampling rate                            : 48.0 KHz
Bit depth                                : 16 bits
Compression mode                         : Lossy
Stream size                              : 343 MiB (6%)
Title                                    : Hindi
Language                                 : Hindi
Default                                  : No
Forced                                   : No

Скриншоты:



Время раздачи: с 13:00 до 01:00 МСК, выходные круглосуточно (до появления первых 3-5 скачавших)
   
Торрент: Зарегистрирован [09 янв 2018, 17:19] Индийское кино Скачать торрент Магнет ссылка
Скачать торрент
[ Размер 27.62 КБ / Просмотров 31 ]
Статус:
Проверен
 
.torrent скачан: 0 раз
Размер: 5.37 ГБ (5 762 144 302 байт)
   Стать Автором раздачи
 
 
Цитата
  • Похожие торренты
    Ответы
    Просмотры
    Последнее сообщение

Вернуться в Индийское кино

Кто сейчас на конференции

Сейчас эту тему просматривают: нет зарегистрированных пользователей и гости: 1