Свет надежды / Tubelight (2017) WEB-DLRip

 Статистика раздачи 
Размер: 2.15 ГБ   |  Зарегистрирован: 09 янв 2018, 17:18   |   .torrent скачан: 0 раз
Сидеров: 0  [ 0 байт/сек ]     Личеров: 0  [ 0 байт/сек ]  
  
Аватара пользователя
Главный редактор
Главный редактор
 
Раздал: 20.67 ТБ
Скачал: 2.31 ТБ
Ратио: 9.367
Сообщения: 88438
Стаж: 7 лет 5 месяцев 27 дней
Откуда: Санкт-Петербург
СообщениеДобавлено: 04 ноя 2017, 06:45


Свет надежды / Tubelight (2017) WEB-DLRip

Производство: Индия
Жанр: Драма, мелодрама, военный

Режиссер: Кабир Кхан
Продюсер: Амар Бутала, Раджан Капур, Salma Khan
Актеры: Салман Кхан, Сохаил Кхан, Ом Пури, Мохаммед Зишан Айюб, Яшпал Шарма, Чжу Чжу, Matin Rey Tangu, Бриджендра Кала, Иша Талвар, Jason D'Souza

Описание:
В маленьком живописном городе Северной Индии живет Лакшман с младшим братом Бхаратом. Лакшман — чудаковатый простак с уникальным взглядом на мир, что часто служит причиной насмешек недалеких жители городка. Бхарат отчаянно защищает и оберегает брата, и их связь становится все глубже. Мир чудака Лакшмана рушится, когда напряженность на индийско-китайской границе достигает предела, и Бхарат отправляется служить в армию.

http://www.imdb.com/title/tt5882970/?ref_=plg_rt_1
Возраст: этот продукт не был классифицирован
Рейтинг MPAA: этот продукт не был классифицирован
Мировая премьера: 23 июня 2017

Релиз от: HONEY&HASEENA

Продолжительность: 02:09:56
Качество видео: WEB-DLRip
Перевод: Профессиональный многоголосый
Озвучка:Маргарита Сахно, Маргарита Корш, Кирилл Патрино, Станислав Черсков и Денис Строев
Перевод и редакция:Honey&Haseena
Звукорежиссёр: Михаил Шорыгин
Субтитры: Русские,неотключаемые (на песни)

Видео: Xvid, 720х304, ~2166 Kbps
Аудио: AC3, 2 ch, 192 Kbps
Код: Выделить всё
Общее
Полное имя                               : J:\Luch.Nadezhdy.2017.WEBDLRip.avi
Формат                                   : AVI
Формат/Информация                        : Audio Video Interleave
Профиль формата                          : OpenDML
Размер файла                             : 2,15 Гбайт
Продолжительность                        : 2 ч. 9 м.
Общий поток                              : 2370 Кбит/сек
Программа кодирования                    : VirtualDubMod 1.5.10.2 (build 2540/release)
Библиотека кодирования                   : VirtualDubMod build 2540/release

Видео
Идентификатор                            : 0
Формат                                   : MPEG-4 Visual
Профиль формата                          : Advanced [email protected]
Параметр BVOP формата                    : 1
Параметр QPel формата                    : Нет
Параметр GMC формата                     : Без точки перехода
Параметр матрицы формата                 : Default (MPEG)
Идентификатор кодека                     : XVID
Идентификатор кодека/Подсказка           : XviD
Продолжительность                        : 2 ч. 9 м.
Битрейт                                  : 2166 Кбит/сек
Ширина                                   : 720 пикселей
Высота                                   : 304 пикселя
Соотношение сторон                       : 2,35:1
Частота кадров                           : 24,000 кадра/сек
Цветовое пространство                    : YUV
Субдискретизация насыщенности            : 4:2:0
Битовая глубина                          : 8 бит
Тип развёртки                            : Прогрессивная
Метод сжатия                             : С потерями
Бит/(Пиксели*Кадры)                      : 0.412
Размер потока                            : 1,97 Гбайт (91%)
Библиотека кодирования                   : XviD 73

Аудио
Идентификатор                            : 1
Формат                                   : AC-3
Формат/Информация                        : Audio Coding 3
Расширение режима                        : CM (complete main)
Параметр Endianness формата              : Big
Идентификатор кодека                     : 2000
Продолжительность                        : 2 ч. 9 м.
Вид битрейта                             : Постоянный
Битрейт                                  : 192 Кбит/сек
Каналы                                   : 2 канала
Расположение каналов                     : Front: L R
Частота                                  : 48,0 КГц
Частота кадров                           : 31,250 кадров/сек (1536 spf)
Метод сжатия                             : С потерями
Размер потока                            : 178 Мбайт (8%)
Выравнивание                             : Разделение по промежуткам
Продолжительность промежутка             : 42  мс. (1,00 видеокадр)
Время предзагрузки промежутка            : 500  мс.

Скриншоты:




Время раздачи: Пн-Пт с 18:00 до 22:00, Сб-Вс с 19:00 до 23:00 (до появления первых 3-5 скачавших)
   
Торрент: Зарегистрирован [09 янв 2018, 17:18] Индийское кино Скачать торрент Магнет ссылка
Скачать торрент
[ Размер 11.63 КБ / Просмотров 19 ]
Статус:
Проверен
 
.torrent скачан: 0 раз
Размер: 2.15 ГБ (2 309 212 160 байт)
   Стать Автором раздачи
 
 
Цитата

Вернуться в Индийское кино

Кто сейчас на конференции

Сейчас эту тему просматривают: нет зарегистрированных пользователей и гости: 1