Бахубали: Начало / Baahubali: The Beginning (2015) BDRip [H.264/1080p]

 Статистика раздачи 
Размер: 12 ГБ   |  Зарегистрирован: 09 янв 2018, 17:17   |   .torrent скачан: 1629 раз
Сидеров: 69  [ 0 байт/сек ]     Личеров: 8  [ 0 байт/сек ]  
  
Аватара пользователя
Главный редактор
Главный редактор
 
Раздал: 37.94 ТБ
Скачал: 2.39 ТБ
Ратио: 16.283
Сообщения: 121952
Стаж: 7 лет 8 месяцев 27 дней
Откуда: Санкт-Петербург

Бахубали: Начало / Baahubali: The Beginning (2015) BDRip [H.264/1080p]

Производство: Индия, Arka Mediaworks
Жанр: Фэнтези, Боевик, Приключения, Драма

Режиссер: С.С. Раджамули
Актеры: Прабхас, Рана Даггубати, Анушка Шетти, Таманна Бхатия, Рамья Кришна, Нассер, Судип Сатьярадж, Таникелла Бхарани

Описание:
Всё начинается со спасения ребенка, которого должны были убить солдаты, посланные правителем королевства Махишмати. Спустя годы, мальчик превращается в крепкого и рослого юношу Шивуду. Однажды он находит маску и решает во что бы то ни стало разыскать ее владельца, не подозревая, что она принадлежит прекрасной воительнице, которая всем своим кланом пытается вызволить из плена королеву Девасену, заточенную жестоким тираном Бхаллалой Девой...

http://www.imdb.com/title/tt2631186/?ref_=plg_rt_1

Релиз от: HDReactor

Продолжительность: 02:39:22
Качество видео: BDRip
Перевод: Многоголосый закадровый
Автор перевода: Rummata
Субтитры: Русские, английские

Видео: AVC/H.264, 1916x826, ~9690 Kbps
Аудио #1: Русский, AC3, 6 ch, 640 Kbps - ICG
Аудио #1: Хинди, AC3, 6 ch, 448 Kbps
Код: Выделить всё
Формат : Matroska
Версия формата : Version 2
Размер файла : 12,0 Гбайт
Продолжительность : 2 ч. 39 м.
Общий поток : 10,8 Мбит/сек
Дата кодирования : UTC 2017-08-17 06:41:04
Программа кодирования : mkvmerge v6.5.0 ('Isn't she lovely') built on Oct 20 2013 12:50:05
Библиотека кодирования : libebml v1.3.0 + libmatroska v1.4.1
Обложка : Yes
Attachments : cover.jpg

Видео
Идентификатор : 1
Формат : AVC
Формат/Информация : Advanced Video Codec
Профиль формата : [url=http://nnm-club.name/mailto:[email protected]][email protected][/url]
Параметр CABAC формата : Да
Параметр RefFrames формата : 5 кадров
Идентификатор кодека : V_MPEG4/ISO/AVC
Продолжительность : 2 ч. 39 м.
Битрейт : 9690 Кбит/сек
Ширина : 1916 пикселей
Высота : 826 пикселей
Соотношение сторон : 2,35:1
Режим частоты кадров : Постоянный
Частота кадров : 24,000 кадра/сек
Цветовое пространство : YUV
Субдискретизация насыщенности : 4:2:0
Битовая глубина : 8 бит
Тип развёртки : Прогрессивная
Бит/(Пиксели*Кадры) : 0.255
Размер потока : 10,5 Гбайт (88%)
Заголовок : ~V~
Библиотека кодирования : x264 core 152 r2851 ba24899
Настройки программы : cabac=1 / ref=5 / deblock=1:-3:-3 / analyse=0x3:0x133 / me=umh / subme=11 / psy=1 / psy_rd=1.00:0.00 / mixed_ref=1 / me_range=32 / chroma_me=1 / trellis=2 / 8x8dct=1 / cqm=0 / deadzone=21,11 / fast_pskip=0 / chroma_qp_offset=-2 / threads=12 / lookahead_threads=1 / sliced_threads=0 / nr=0 / decimate=0 / interlaced=0 / bluray_compat=0 / constrained_intra=0 / bframes=9 / b_pyramid=2 / b_adapt=2 / b_bias=0 / direct=3 / weightb=1 / open_gop=0 / weightp=2 / keyint=240 / keyint_min=24 / scenecut=40 / intra_refresh=0 / rc=2pass / mbtree=0 / bitrate=9690 / ratetol=1.0 / qcomp=0.60 / qpmin=0 / qpmax=69 / qpstep=4 / cplxblur=20.0 / qblur=0.5 / ip_ratio=1.20 / pb_ratio=1.30 / aq=3:0.80
Язык : English
Default : Да
Forced : Нет

Аудио #1
Идентификатор : 2
Формат : AC-3
Формат/Информация : Audio Coding 3
Параметр Endianness формата : Big
Идентификатор кодека : A_AC3
Продолжительность : 2 ч. 39 м.
Вид битрейта : Постоянный
Битрейт : 640 Кбит/сек
Каналы : 6 каналов
Расположение каналов : Front: L C R, Side: L R, LFE
Частота : 48,0 КГц
Частота кадров : 31,250 кадров/сек (1536 SPF)
Битовая глубина : 16 бит
Метод сжатия : С потерями
Размер потока : 730 Мбайт (6%)
Заголовок : MVO [ICG]
Язык : Russian
Default : Да
Forced : Нет

Аудио #2
Идентификатор : 3
Формат : AC-3
Формат/Информация : Audio Coding 3
Параметр Endianness формата : Big
Идентификатор кодека : A_AC3
Продолжительность : 2 ч. 39 м.
Вид битрейта : Постоянный
Битрейт : 448 Кбит/сек
Каналы : 6 каналов
Расположение каналов : Front: L C R, Side: L R, LFE
Частота : 48,0 КГц
Частота кадров : 31,250 кадров/сек (1536 SPF)
Битовая глубина : 16 бит
Метод сжатия : С потерями
Размер потока : 511 Мбайт (4%)
Язык : Hindi
Default : Нет
Forced : Нет

Текст #1
Идентификатор : 4
Формат : UTF-8
Идентификатор кодека : S_TEXT/UTF8
Идентификатор кодека/Информация : UTF-8 Plain Text
Заголовок : Forc / на песни [вариант1]
Язык : Russian
Default : Да
Forced : Нет

Текст #2
Идентификатор : 5
Формат : UTF-8
Идентификатор кодека : S_TEXT/UTF8
Идентификатор кодека/Информация : UTF-8 Plain Text
Заголовок : Forc / на песни [вариант2]
Язык : Russian
Default : Нет
Forced : Нет

Текст #3
Идентификатор : 6
Формат : UTF-8
Идентификатор кодека : S_TEXT/UTF8
Идентификатор кодека/Информация : UTF-8 Plain Text
Заголовок : Full
Язык : Russian
Default : Нет
Forced : Нет

Текст #4
Идентификатор : 7
Формат : UTF-8
Идентификатор кодека : S_TEXT/UTF8
Идентификатор кодека/Информация : UTF-8 Plain Text
Заголовок : Full
Язык : English
Default : Нет
Forced : Нет

Меню
00:00:00.000 : en:Chapter 01
00:04:45.750 : en:Chapter 02
00:10:28.041 : en:Chapter 03
00:15:24.875 : en:Chapter 04
00:18:42.166 : en:Chapter 05
00:20:40.333 : en:Chapter 06
00:26:51.125 : en:Chapter 07
00:33:06.833 : en:Chapter 08
00:41:03.583 : en:Chapter 09
01:02:02.416 : en:Chapter 10
01:05:31.250 : en:Chapter 11
01:11:45.541 : en:Chapter 12
01:21:27.625 : en:Chapter 13
01:37:14.000 : en:Chapter 14
01:44:07.208 : en:Chapter 15
01:48:28.083 : en:Chapter 16
01:51:42.208 : en:Chapter 17
01:57:32.208 : en:Chapter 18
02:19:32.666 : en:Chapter 19
02:29:12.583 : en:Chapter 20

Скриншоты:



Время раздачи: 27/7 (до появления первых 3-5 скачавших)
   
Торрент: Зарегистрирован [09 янв 2018, 17:17] Индийское кино Скачать торрент Магнет ссылка
Скачать торрент
[ Размер 30.93 КБ / Просмотров 19 ]
Статус:
Проверен
 
.torrent скачан: 1629 раз
Размер: 12 ГБ (12 883 976 954 байт)
   Стать Автором раздачи
 
 
Цитата

Вернуться в Индийское кино

Кто сейчас на конференции

Сейчас эту тему просматривают: нет зарегистрированных пользователей и гости: 1