Сардар Габбар Сингх / Sardaar Gabbar Singh (2016) HDRip [MVO]

 Статистика раздачи 
Размер: 2.15 ГБ   |  Зарегистрирован: 09 янв 2018, 17:17   |   .torrent скачан: 2 раз
Сидеров: 16  [ 0 байт/сек ]     Личеров: 3  [ 0 байт/сек ]  
  
Аватара пользователя
Главный редактор
Главный редактор
 
Раздал: 52.3 ТБ
Скачал: 2.55 ТБ
Ратио: 20.932
Сообщения: 145615
Стаж: 7 лет 11 месяцев 27 дней
Откуда: Санкт-Петербург

Сардар Габбар Сингх / Sardaar Gabbar Singh (2016) HDRip

Производство: Индия
Жанр: Боевик

Режиссер: Бобби Колли
Продюсер: Паван Кальян, Сунил Лула, Sharrath Marar
Актеры: Каджал, Паван Кальян, Мукеш Риши, Брахманандам, Шарад Келкар, Таникелла Бхарани, Али, Кришна Мурали Посани, Рао Рамеш, Брахмаджи

Описание:
В отличие от экранного злодея, чье имя он взял, Сардар Габбар Сингх сам борется с преступниками, такова его миссия. Лихой, отважный, без царя в голове - его обедом не корми, дай бандюгана пристрелить. Вместе с верным другом детства Самбой они отправлены опекуном в селение Ратанпур, где свирепствуют банды местного раджи Бхайрава Сингха. Чтобы победить врага, Сардару приходится поначалу хитрить и подыгрывать. Но бандиты - это еще не все напасти, которые свалились на голову смелого полицейского. Дело в том, что неподалеку есть огромный дворец, а во дворце живет прекрасная принцесса. И парня угораздило влбиться.

http://www.imdb.com/title/tt4545630/?ref_=plg_rt_1
Возраст: этот продукт не был классифицирован
Рейтинг MPAA: этот продукт не был классифицирован

Релиз от: Wita

Продолжительность: 02:44:31
Качество видео: HDRip
Перевод: Любительский (двухголосый)
Субтитры: Русские (на песни, неотключаемые)

Видео: Xvid, 720х304, ~1664 Kbps
Аудио: AC3, 2 ch, 192 Kbps
Код: Выделить всё
Общее
Полное имя                               : J:\Sardaar.Gabbar.Singh.2016.L.HDRip.avi
Формат                                   : AVI
Формат/Информация                        : Audio Video Interleave
Профиль формата                          : OpenDML
Размер файла                             : 2,15 Гбайт
Продолжительность                        : 2 ч. 44 м.
Общий поток                              : 1868 Кбит/сек
Название фильма                          : Sardaar.Gabbar.Singh.2016.L.HDRip.XviD.BwTorrents
Режиссёр                                 : soso4eg@BwTorrents
Программа кодирования                    : VirtualDubMod 1.5.10.3 | [url=http://www.virtualdub-fr.org]www.virtualdub-fr.org[/url] || (build 2550/release)
Формат оригинала/Имя                     : Telugu
Авторское право                          : BwTorrents
Примечание                               : озв. FANStudio, суб. Wita

Видео
Идентификатор                            : 0
Формат                                   : MPEG-4 Visual
Профиль формата                          : Advanced Simple@L5
Параметр BVOP формата                    : 2
Параметр QPel формата                    : Нет
Параметр GMC формата                     : Без точки перехода
Параметр матрицы формата                 : Default (H.263)
Идентификатор кодека                     : XVID
Идентификатор кодека/Подсказка           : XviD
Продолжительность                        : 2 ч. 44 м.
Битрейт                                  : 1664 Кбит/сек
Ширина                                   : 720 пикселей
Высота                                   : 304 пикселя
Соотношение сторон                       : 2,35:1
Частота кадров                           : 24,000 кадра/сек
Цветовое пространство                    : YUV
Субдискретизация насыщенности            : 4:2:0
Битовая глубина                          : 8 бит
Тип развёртки                            : Прогрессивная
Метод сжатия                             : С потерями
Бит/(Пиксели*Кадры)                      : 0.317
Размер потока                            : 1,91 Гбайт (89%)
Библиотека кодирования                   : XviD 1.2.1 (UTC 2008-12-04)

Аудио
Идентификатор                            : 1
Формат                                   : AC-3
Формат/Информация                        : Audio Coding 3
Расширение режима                        : CM (complete main)
Параметр Endianness формата              : Big
Идентификатор кодека                     : 2000
Продолжительность                        : 2 ч. 44 м.
Вид битрейта                             : Постоянный
Битрейт                                  : 192 Кбит/сек
Каналы                                   : 2 канала
Расположение каналов                     : Front: L R
Частота                                  : 48,0 КГц
Частота кадров                           : 31,250 кадров/сек (1536 spf)
Метод сжатия                             : С потерями
Размер потока                            : 226 Мбайт (10%)
Выравнивание                             : Разделение по промежуткам
Продолжительность промежутка             : 42  мс. (1,00 видеокадр)
Время предзагрузки промежутка            : 500  мс.

Скриншоты:



Время раздачи: Пн-Пт с 18:00 до 22:00, Сб-Вс с 09:00 до 23:00 (до появления первых 3-5 скачавших)
Не забывайте говорить Спасибо. Не уходите с раздачи!   
Торрент: Зарегистрирован [09 янв 2018, 17:17] Для скачивания .torrent
необходима регистрация
Или скачать с помощью
MediaGet
Статус:
Проверен
 
.torrent скачан: 2 раз
Размер: 2.15 ГБ (2 305 509 376 байт)
   Стать Автором раздачи
   
Цитата
  • Похожие торренты
    Ответы
    Просмотры
    Последнее сообщение

Вернуться в Индийское кино

Кто сейчас на конференции

Сейчас эту тему просматривают: нет зарегистрированных пользователей и гости: 1