Справедливый человек / Sarrainodu (2016) WEBRip [MVO]

 Статистика раздачи 
Размер: 1.37 ГБ   |  Зарегистрирован: 09 янв 2018, 17:17   |   .torrent скачан: 2 раз
Сидеров: 4  [ 0 байт/сек ]     Личеров: 6  [ 0 байт/сек ]  
  
Аватара пользователя
Главный редактор
Главный редактор
 
Раздал: 37.94 ТБ
Скачал: 2.39 ТБ
Ратио: 16.283
Сообщения: 121952
Стаж: 7 лет 8 месяцев 27 дней
Откуда: Санкт-Петербург

Справедливый человек / Sarrainodu (2016) WEBRip

Производство: Индия
Жанр: Боевик, Драма, Мелодрама

Режиссер: Бояпати Срину
Продюсер: Аллу Аравинд
Актеры: Аллу Арджун, Аадхи, Ракул Прит Сингх, Катрин Треса, Брахманандам, В. Джаяпракаш,

Описание:
В прошлом Гана был военным, но теперь он находится в отставке. Вернувшись домой, он решает бросить свои силы на борьбу с преступностью, и ему это прекрасно удаётся благодаря его боевым навыкам, полученным на военной службе. Однако его отец является влиятельным чиновником, и ему не нравится то, чем занимается его сын. Отец решает женить Гану на прекрасной девушке Джане – возможно, тогда Гана отвлечется от противостояния с преступностью. Но сам Гана влюблён в другую девушку – Хансику, которая занимает должность депутата округа. В это время Гана сталкивается с опасным бандитом Дханушем, и теперь мужчине приходится защищать не только свою жизнь, но и спокойствие своей семьи и Джаны.

http://www.imdb.com/title/tt5457772/?ref_=plg_rt_1
Возраст: этот продукт не был классифицирован
Рейтинг MPAA: этот продукт не был классифицирован
Мировая премьера: 21 апреля 2016

Продолжительность: 02:06:10
Качество видео: WEBRip
Перевод: Любительский многоголосый
Субтитры: отсутствуют
Реклама: присутствуют аудио и видео вставки рекламы

Видео: Xvid, 720x304, ~1413 Kbps
Аудио: AC3, 2 ch, 128 Kbps
Код: Выделить всё
Общее
Полное имя                               : J:\Sarrainodu.2017.P.WEBRip.avi
Формат                                   : AVI
Формат/Информация                        : Audio Video Interleave
Размер файла                             : 1,37 Гбайт
Продолжительность                        : 2 ч. 6 м.
Общий поток                              : 1551 Кбит/сек
Программа кодирования                    : VirtualDubMod 1.5.10.2 (build 2540/release)
Библиотека кодирования                   : VirtualDubMod build 2540/release

Видео
Идентификатор                            : 0
Формат                                   : MPEG-4 Visual
Профиль формата                          : Advanced [email protected]
Параметр BVOP формата                    : 2
Параметр QPel формата                    : Нет
Параметр GMC формата                     : Без точки перехода
Параметр матрицы формата                 : Default (MPEG)
Идентификатор кодека                     : XVID
Идентификатор кодека/Подсказка           : XviD
Продолжительность                        : 2 ч. 6 м.
Битрейт                                  : 1413 Кбит/сек
Ширина                                   : 720 пикселей
Высота                                   : 304 пикселя
Соотношение сторон                       : 2,35:1
Частота кадров                           : 25,000 кадров/сек
Цветовое пространство                    : YUV
Субдискретизация насыщенности            : 4:2:0
Битовая глубина                          : 8 бит
Тип развёртки                            : Прогрессивная
Метод сжатия                             : С потерями
Бит/(Пиксели*Кадры)                      : 0.258
Размер потока                            : 1,25 Гбайт (91%)
Библиотека кодирования                   : XviD 1.2.1 (UTC 2008-12-04)

Аудио
Идентификатор                            : 1
Формат                                   : AC-3
Формат/Информация                        : Audio Coding 3
Расширение режима                        : CM (complete main)
Параметр Endianness формата              : Big
Идентификатор кодека                     : 2000
Продолжительность                        : 2 ч. 6 м.
Вид битрейта                             : Постоянный
Битрейт                                  : 128 Кбит/сек
Каналы                                   : 2 канала
Расположение каналов                     : Front: L R
Частота                                  : 48,0 КГц
Частота кадров                           : 31,250 кадров/сек (1536 spf)
Метод сжатия                             : С потерями
Размер потока                            : 116 Мбайт (8%)
Выравнивание                             : Разделение по промежуткам
Продолжительность промежутка             : 40  мс. (1,00 видеокадр)
Время предзагрузки промежутка            : 500  мс.

Скриншоты:




Время раздачи: Пн-Пт с 18:00 до 22:00, Сб-Вс с 09:00 до 23:00 (до появления первых 3-5 скачавших)
   
Торрент: Зарегистрирован [09 янв 2018, 17:17] Индийское кино Скачать торрент Магнет ссылка
Скачать торрент
[ Размер 14.56 КБ / Просмотров 30 ]
Статус:
Проверен
 
.torrent скачан: 2 раз
Размер: 1.37 ГБ (1 467 232 256 байт)
   Стать Автором раздачи
 
 
Цитата

Вернуться в Индийское кино

Кто сейчас на конференции

Сейчас эту тему просматривают: нет зарегистрированных пользователей и гости: 1