След врага / Dora (2017) HDRip

 Статистика раздачи 
Размер: 1.45 ГБ   |  Зарегистрирован: 09 янв 2018, 17:17   |   .torrent скачан: 4 раз
Сидеров: 92  [ 0 байт/сек ]     Личеров: 2  [ 0 байт/сек ]  
  
Аватара пользователя
Главный редактор
Главный редактор
 
Раздал: 52.3 ТБ
Скачал: 2.55 ТБ
Ратио: 20.932
Сообщения: 145615
Стаж: 7 лет 11 месяцев 27 дней
Откуда: Санкт-Петербург
СообщениеДобавлено: 12 авг 2017, 11:06


След врага / Dora (2017) HDRip

Производство: Индия
Жанр: Ужасы

Режиссер: Дас Рамасами
Актеры: Наянтара, Тамби Рамайя, Хариш Утаман

Описание:
Решив открыть фирму такси по вызову, Павалакуди со своим отцом Вайраканну покупает старый автомобиль. Но вскоре понимает, что с машиной происходит что-то странное. Старая колдунья говорит Павалакуди, что в ее машину вселился дух, и он не уйдет, пока не выполнит свою задачу.


Возраст: этот продукт не был классифицирован
Рейтинг MPAA: этот продукт не был классифицирован

Релиз от: BWtorrents.

Продолжительность: 02:16:02
Качество видео: HDRip
Перевод: Профессиональный (многоголосый, закадровый) - SDI Media
Субтитры: отсутствуют

Видео: Xvid, 720х304, ~1389 kbps
Аудио: MP3, 2 ch, 128 kbps
Код: Выделить всё
Общее
Полное имя                               : E:\Индия\DORA.2017.P.HDRip.avi
Формат                                   : AVI
Формат/Информация                        : Audio Video Interleave
Размер файла                             : 1,45 Гбайт
Продолжительность                        : 2 ч. 16 м.
Общий поток                              : 1527 Кбит/сек
Название фильма                          : DORA.2017.P.HDRip.XviD.BwTorrents
Режиссёр                                 : soso4eg@BwTorrents
Программа кодирования                    : VirtualDubMod 1.5.10.2 (build 2540/release)
Формат оригинала/Имя                     : Tamili (Dora)
Авторское право                          : BwTorrents
Примечание                               : проф. перевод SDI Media (След врага)

Видео
Идентификатор                            : 0
Формат                                   : MPEG-4 Visual
Профиль формата                          : Advanced Simple@L5
Параметр BVOP формата                    : 2
Параметр QPel формата                    : Нет
Параметр GMC формата                     : Без точки перехода
Параметр матрицы формата                 : Default (H.263)
Идентификатор кодека                     : XVID
Идентификатор кодека/Подсказка           : XviD
Продолжительность                        : 2 ч. 16 м.
Битрейт                                  : 1389 Кбит/сек
Ширина                                   : 720 пикселей
Высота                                   : 304 пикселя
Соотношение сторон                       : 2,35:1
Частота кадров                           : 24,000 кадра/сек
Цветовое пространство                    : YUV
Субдискретизация насыщенности            : 4:2:0
Битовая глубина                          : 8 бит
Тип развёртки                            : Прогрессивная
Метод сжатия                             : С потерями
Бит/(Пиксели*Кадры)                      : 0.265
Размер потока                            : 1,32 Гбайт (91%)
Библиотека кодирования                   : XviD 1.2.1 (UTC 2008-12-04)

Аудио
Идентификатор                            : 1
Формат                                   : MPEG Audio
Версия формата                           : Version 1
Профиль формата                          : Layer 3
Режим                                    : Joint stereo
Идентификатор кодека                     : 55
Идентификатор кодека/Подсказка           : MP3
Продолжительность                        : 2 ч. 16 м.
Вид битрейта                             : Постоянный
Битрейт                                  : 128 Кбит/сек
Каналы                                   : 2 канала
Частота                                  : 48,0 КГц
Метод сжатия                             : С потерями
Размер потока                            : 125 Мбайт (8%)
Выравнивание                             : Соединение по промежуткам
Продолжительность промежутка             : 42  мс. (1,00 видеокадр)
Время предзагрузки промежутка            : 504  мс.

Скриншоты:




Время раздачи: Пн-Пт с 18:00 до 22:00, Сб-Вс с 09:00 до 23:00 (до появления первых 3-5 скачавших)
Не забывайте говорить Спасибо. Не уходите с раздачи!   
Торрент: Зарегистрирован [09 янв 2018, 17:17] Для скачивания .torrent
необходима регистрация
Или скачать с помощью
MediaGet
Статус:
Проверен
 
.torrent скачан: 4 раз
Размер: 1.45 ГБ (1 557 846 016 байт)
   Стать Автором раздачи
   
Цитата

Вернуться в Индийское кино

Кто сейчас на конференции

Сейчас эту тему просматривают: нет зарегистрированных пользователей и гости: 1