Невеста Бадринатха / Badrinath Ki Dulhania (2017) HDRip [MVO]

 Статистика раздачи 
Размер: 1.82 ГБ   |  Зарегистрирован: 09 янв 2018, 17:16   |   .torrent скачан: 2 раз
Сидеров: 2  [ 0 байт/сек ]     Личеров: 0  [ 0 байт/сек ]  
  
Аватара пользователя
Главный редактор
Главный редактор
 
Раздал: 20.67 ТБ
Скачал: 2.31 ТБ
Ратио: 9.367
Сообщения: 88438
Стаж: 7 лет 5 месяцев 27 дней
Откуда: Санкт-Петербург

Невеста Бадринатха / Badrinath Ki Dulhania (2017) HDRip

Производство: Индия
Жанр: Комедия, Драма, Мелодрама

Режиссер: Шашанк Кхайтан
Продюсер: Хироо Джохар, Каран Джохар, Апурва Мехта
Актеры: Варун Дхаван, Алия Бхатт, Сахил Ваид, Сукмани Ламба

Описание:
Бадринатх Бансал — сын крупного деревенского бизнесмена. Он мечтает жениться на хорошей девушке и свить с ней семейное гнёздышко. На свадьбе друга парень встречает строптивую Вайдехи, влюбляется в неё с первого взгляда и сразу же предлагает девушке свою руку и сердце. Однако в планы Вайдехи не входит замужество, и она даёт влюблённому парню от ворот поворот. Но Бадринатх не из тех, кто легко сдаётся. Он решает во что бы то ни стало добиться сердца красавицы.



Возраст: этот продукт не был классифицирован
Рейтинг MPAA: этот продукт не был классифицирован

Релиз от: HONEY&HASEENA

Продолжительность: 02:19:31
Качество видео: HDRip
Перевод: Любительский (многоголосый закадровый)
Субтитры: русские,вшитые неотключаемые (на песни)
Реклама: отсутствует

Видео: Xvid, 720x320, ~1598 Kbps
Аудио: AC3, 2 ch, 256 Kbps
Код: Выделить всё
Общее
Полное имя                               : J:\Badrinath.Ki.Dulhania.2017.P.HDRip.avi
Формат                                   : AVI
Формат/Информация                        : Audio Video Interleave
Профиль формата                          : OpenDML
Размер файла                             : 1,82 Гбайт
Продолжительность                        : 2 ч. 19 м.
Общий поток                              : 1865 Кбит/сек
Программа кодирования                    : Lavf57.71.100

Видео
Идентификатор                            : 0
Формат                                   : MPEG-4 Visual
Профиль формата                          : Advanced [email protected]
Параметр BVOP формата                    : 1
Параметр QPel формата                    : Нет
Параметр GMC формата                     : Без точки перехода
Параметр матрицы формата                 : Default (H.263)
Идентификатор кодека                     : XVID
Идентификатор кодека/Подсказка           : XviD
Продолжительность                        : 2 ч. 19 м.
Битрейт                                  : 1598 Кбит/сек
Ширина                                   : 720 пикселей
Высота                                   : 320 пикселей
Соотношение сторон                       : 2,35:1
Частота кадров                           : 23,976 (24000/1001) кадра/сек
Цветовое пространство                    : YUV
Субдискретизация насыщенности            : 4:2:0
Битовая глубина                          : 8 бит
Тип развёртки                            : Прогрессивная
Метод сжатия                             : С потерями
Бит/(Пиксели*Кадры)                      : 0.289
Размер потока                            : 1,56 Гбайт (86%)
Библиотека кодирования                   : XviD 67

Аудио
Идентификатор                            : 1
Формат                                   : AC-3
Формат/Информация                        : Audio Coding 3
Расширение режима                        : CM (complete main)
Параметр Endianness формата              : Big
Идентификатор кодека                     : 2000
Продолжительность                        : 2 ч. 19 м.
Вид битрейта                             : Постоянный
Битрейт                                  : 256 Кбит/сек
Каналы                                   : 2 канала
Расположение каналов                     : Front: L R
Частота                                  : 44,1 КГц
Частота кадров                           : 28,711 кадров/сек (1536 spf)
Битовая глубина                          : 16 бит
Метод сжатия                             : С потерями
Размер потока                            : 255 Мбайт (14%)
Выравнивание                             : Соединение по промежуткам
Продолжительность промежутка             : 35  мс. (0,84 видеокадр)

Скриншоты:




Время раздачи: Пн-Пт с 18:00 до 22:00, Вс с 09:00 до 23:00 (до появления первых 3-5 скачавших)
   
Торрент: Зарегистрирован [09 янв 2018, 17:16] Индийское кино Скачать торрент Магнет ссылка
Скачать торрент
[ Размер 19.09 КБ / Просмотров 19 ]
Статус:
Проверен
 
.torrent скачан: 2 раз
Размер: 1.82 ГБ (1 951 430 448 байт)
   Стать Автором раздачи
 
 
Цитата

Вернуться в Индийское кино

Кто сейчас на конференции

Сейчас эту тему просматривают: нет зарегистрированных пользователей и гости: 1