Львиное Сердце 3 / Singam 3 (2017) HDRip

 Статистика раздачи 
Размер: 1.7 ГБ   |  Зарегистрирован: 09 янв 2018, 17:16   |   .torrent скачан: 4 раз
Сидеров: 90  [ 0 байт/сек ]     Личеров: 0  [ 0 байт/сек ]  
  
Аватара пользователя
Главный редактор
Главный редактор
 
Раздал: 53.85 ТБ
Скачал: 2.58 ТБ
Ратио: 21.275
Сообщения: 157211
Стаж: 8 лет 19 дней
Откуда: Санкт-Петербург
СообщениеДобавлено: 05 авг 2017, 07:52


Львиное Сердце 3 / Singam 3 (2017) HDRip

Производство: Индия
Жанр: Боевик, Триллер

Режиссер: Хари
Продюсер: К.Е. Гнанавел
Актеры: Сурья Шивакумар, Анушка Шетти, Шрути Хаасан, Радхика Сарахткумар, Тхакур Ануп Сингх, Нассер

Описание:
Бескомпромиссный полицейский Дурай Сингам сражается против преступной корпорации, поставляющей смертельные токсичные отходы из Австралии в Индию…



Возраст: этот продукт не был классифицирован
Рейтинг MPAA: этот продукт не был классифицирован
Мирова премьера : 9 февраля 2017

Продолжительность: 02:31:51
Качество видео: HDRip
Перевод: Профессиональный (многоголосый, закадровый) т/к Индия ТВ
Субтитры: Русские, вшитые, неотключаемые (на песни)
Реклама: отсутствует

Видео: Xvid, 720x420, ~1400 Kbps
Аудио: AC3, 2 ch, 192 Kbps
Код: Выделить всё
Общее
Полное имя                               : J:\Lvinoe.Serdtse.3.2017.HDRip.avi
Формат                                   : AVI
Формат/Информация                        : Audio Video Interleave
Профиль формата                          : OpenDML
Размер файла                             : 1,70 Гбайт
Продолжительность                        : 2 ч. 31 м.
Общий поток                              : 1603 Кбит/сек
Название фильма                          : Львиное Сердце 3/ Singam 3 BWTorrents
Программа кодирования                    : Lavf57.71.100

Видео
Идентификатор                            : 0
Формат                                   : MPEG-4 Visual
Профиль формата                          : Advanced Simple@L5
Параметр BVOP формата                    : 1
Параметр QPel формата                    : Нет
Параметр GMC формата                     : Без точки перехода
Параметр матрицы формата                 : Default (H.263)
Идентификатор кодека                     : XVID
Идентификатор кодека/Подсказка           : XviD
Продолжительность                        : 2 ч. 31 м.
Битрейт                                  : 1400 Кбит/сек
Ширина                                   : 720 пикселей
Высота                                   : 420 пикселей
Соотношение сторон                       : 2,35:1
Частота кадров                           : 24,000 кадра/сек
Цветовое пространство                    : YUV
Субдискретизация насыщенности            : 4:2:0
Битовая глубина                          : 8 бит
Тип развёртки                            : Прогрессивная
Метод сжатия                             : С потерями
Бит/(Пиксели*Кадры)                      : 0.193
Размер потока                            : 1,48 Гбайт (87%)
Заголовок                                : Львиное Сердце 3/ Singam 3
Библиотека кодирования                   : XviD 67

Аудио
Идентификатор                            : 1
Формат                                   : AC-3
Формат/Информация                        : Audio Coding 3
Расширение режима                        : CM (complete main)
Параметр Endianness формата              : Big
Идентификатор кодека                     : 2000
Продолжительность                        : 2 ч. 31 м.
Вид битрейта                             : Постоянный
Битрейт                                  : 192 Кбит/сек
Каналы                                   : 2 канала
Расположение каналов                     : Front: L R
Частота                                  : 48,0 КГц
Частота кадров                           : 31,250 кадров/сек (1536 spf)
Битовая глубина                          : 16 бит
Метод сжатия                             : С потерями
Размер потока                            : 209 Мбайт (12%)
Выравнивание                             : Соединение по промежуткам
Продолжительность промежутка             : 32  мс. (0,77 видеокадр)
Заголовок                                : Львиное Сердце 3/ Singam 3

Скриншоты:




Время раздачи: Пн-Пт с 18:00 до 22:00, Вс с 09:00 до 23:00 (до появления первых 3-5 скачавших)
Не забывайте говорить Спасибо. Не уходите с раздачи!   
Торрент: Зарегистрирован [09 янв 2018, 17:16] Для скачивания .torrent
необходима регистрация
Или скачать с помощью
MediaGet
Статус:
Проверен
 
.torrent скачан: 4 раз
Хэш: 2df019e9069044dfbae87c9a4245d5e3c31b8884
Размер: 1.7 ГБ (1 825 605 016 байт)
   Стать Автором раздачи
   
Цитата

Вернуться в Индийское кино

Кто сейчас на конференции

Сейчас эту тему просматривают: нет зарегистрированных пользователей и гости: 1