Тесная связь / Raabta (2017) WEB-DLRip [MVO]

 Статистика раздачи 
Размер: 2.14 ГБ   |  Зарегистрирован: 09 янв 2018, 17:16   |   .torrent скачан: 1 раз
Сидеров: 0  [ 0 байт/сек ]     Личеров: 2  [ 0 байт/сек ]  
  
Аватара пользователя
Главный редактор
Главный редактор
 
Раздал: 53.85 ТБ
Скачал: 2.58 ТБ
Ратио: 21.275
Сообщения: 157211
Стаж: 8 лет 19 дней
Откуда: Санкт-Петербург
СообщениеДобавлено: 01 авг 2017, 20:18


Тесная связь / Raabta (2017) WEB-DLRip

Производство: Индия
Жанр: Драма, Мелодрама, Комедия

Режиссер: Динеш Виджан
Продюсер: Хоми Ададжаниа, Бхушан Кумар, Динеш Виджан
Актеры: Крити Санон, Сушант Сингх Раджпут, Джим Шарбх, Варун Шарма, Дипика Падукон (камео)

Описание:
Эта история начинается со случайной встречи Сайры - простой девушки-кондитера, которая зарабатывает себе на жизнь приготовлением шоколада и Шива - заядлого бабника, который не пропускает ни одной юбки. Между молодыми сразу вспыхивает искра, которая разгорится в настоящий пожар с появлением в их жизни миллионера Закира, который утверждает, что их встреча неслучайна...



Возраст: этот продукт не был классифицирован
Рейтинг MPAA: этот продукт не был классифицирован
Дата мировой премьеры: 9 июня 2017

Релиз от: HONEY&HASEENA

Продолжительность: 02:23:29
Качество видео: WEB-DLRip
Перевод: Любительский многоголосый
Субтитры: Русские (неотключаемые, на песни)

Видео: Xvid, 720x304, ~1934 Kbps
Аудио: AC3, 2 ch, 192 Kbps - Русский (MVO ''Маргарита Сахно, Давид Петросян и Кирилл Патрино'')
Код: Выделить всё
Общее
Полное имя                               : E:\Индия\Uzi.2017.WEB-DLRip.avi
Формат                                   : AVI
Формат/Информация                        : Audio Video Interleave
Размер файла                             : 2,14 Гбайт
Продолжительность                        : 2 ч. 23 м.
Общий поток                              : 2135 Кбит/сек
Название фильма                          : Raabta (2017) Russian
Программа кодирования                    : VirtualDubMod 1.5.10.2 (build 2542/release)
Библиотека кодирования                   : VirtualDubMod build 2542/release

Видео
Идентификатор                            : 0
Формат                                   : MPEG-4 Visual
Профиль формата                          : Advanced Simple@L5
Параметр BVOP формата                    : 1
Параметр QPel формата                    : Нет
Параметр GMC формата                     : Без точки перехода
Параметр матрицы формата                 : Default (MPEG)
Идентификатор кодека                     : XVID
Идентификатор кодека/Подсказка           : XviD
Продолжительность                        : 2 ч. 23 м.
Битрейт                                  : 1934 Кбит/сек
Ширина                                   : 720 пикселей
Высота                                   : 304 пикселя
Соотношение сторон                       : 2,35:1
Частота кадров                           : 23,976 (23976/1000) кадра/сек
Цветовое пространство                    : YUV
Субдискретизация насыщенности            : 4:2:0
Битовая глубина                          : 8 бит
Тип развёртки                            : Прогрессивная
Метод сжатия                             : С потерями
Бит/(Пиксели*Кадры)                      : 0.369
Размер потока                            : 1,94 Гбайт (91%)
Библиотека кодирования                   : XviD 73

Аудио
Идентификатор                            : 1
Формат                                   : AC-3
Формат/Информация                        : Audio Coding 3
Расширение режима                        : CM (complete main)
Параметр Endianness формата              : Big
Идентификатор кодека                     : 2000
Продолжительность                        : 2 ч. 23 м.
Вид битрейта                             : Постоянный
Битрейт                                  : 192 Кбит/сек
Каналы                                   : 2 канала
Расположение каналов                     : Front: L R
Частота                                  : 48,0 КГц
Частота кадров                           : 31,250 кадров/сек (1536 spf)
Метод сжатия                             : С потерями
Размер потока                            : 197 Мбайт (9%)
Выравнивание                             : Разделение по промежуткам
Продолжительность промежутка             : 42  мс. (1,00 видеокадр)
Время предзагрузки промежутка            : 500  мс.
Заголовок                                : Russian @ Honey&Haseena

Скриншоты:




Время раздачи: Пн-Пт с 18:00 до 22:00, Вс с 09:00 до 23:00 (до появления первых 3-5 скачавших)
Не забывайте говорить Спасибо. Не уходите с раздачи!   
Торрент: Зарегистрирован [09 янв 2018, 17:16] Для скачивания .torrent
необходима регистрация
Или скачать с помощью
MediaGet
Статус:
Проверен
 
.torrent скачан: 1 раз
Хэш: c6b82b14e12cf87441ae50d2e07f584a07f5ee4e
Размер: 2.14 ГБ (2 298 259 456 байт)
   Стать Автором раздачи
   
Цитата
  • Похожие торренты
    Ответы
    Просмотры
    Последнее сообщение

Вернуться в Индийское кино

Кто сейчас на конференции

Сейчас эту тему просматривают: нет зарегистрированных пользователей и гости: 1