Дангал (Борьба) / Dangal (2016) BDrip [H.264/720p]

 Статистика раздачи 
Размер: 5.99 ГБ   |  Зарегистрирован: 09 янв 2018, 17:15   |   .torrent скачан: 850 раз
Сидеров: 2  [ 0 байт/сек ]     Личеров: 15  [ 0 байт/сек ]  
  
Аватара пользователя
Главный редактор
Главный редактор
 
Раздал: 20.67 ТБ
Скачал: 2.31 ТБ
Ратио: 9.367
Сообщения: 88438
Стаж: 7 лет 5 месяцев 27 дней
Откуда: Санкт-Петербург
СообщениеДобавлено: 15 июн 2017, 02:11


Дангал (Борьба) / Dangal (2016) BDrip [H.264/720p]

Производство: Индия, Aamir Khan Productions Ltd., Walt Disney Pictures
Жанр: Драма, биография, спорт

Режиссер: Нитеш Тивари
Актеры: Аамир Кхан, Sakshi Tanwar, Бейби Сана, Sanya Malhotra, Aparshakti Khurana, Zaira Wasim, Suhani Bhatnagar, Ritwik Sahore, Гириш Кулкарни, Анураг Арора

Описание:
История реально существующего спортсмена Махавира Сингха Пхогата, который по причине бедности был вынужден бросить спортивную борьбу, но поклялся воспитать сына, который станет в будущем олимпийским чемпионом. Но вот досада — у них с женой родились четыре дочки. Отец сначала отчаялся, но потом, увидев, что подросшие девчонки поколачивают одноклассников, решил всё же сделать из них спортсменок. Тренер из отца получился отменный.



Релиз от: RG NNM Club Video
Продолжительность: 02:41:01
Качество видео: BD-rip
Перевод: Многоголосый, профессиональный (Денис Строев, Давид Петросян и Маргарита Сахно)
Субтитры: Английские

Видео: AVC/H.264, 1280х536, ~4.3 Mbps
Аудио #1: AC3, 2.0 ch, 48 kHz, 256 kbps - Русский
Аудио #2: DTS, 5.1 ch, 48 kHz, 768 kbps - Хинди
Код: выделить все
x264 info: frame I:3423  Avg QP:11.31  size:149699
x264 info: frame P:34498 Avg QP:14.29  size: 58748
x264 info: frame B:193919 Avg QP:17.49  size: 13093

Format                                   : Matroska
Format version                           : Version 4 / Version 2
File size                                : 5.99 GiB
Duration                                 : 2h 41mn
Overall bit rate                         : 5 325 Kbps
Movie name                               : DANGAL.Title4
Encoded date                             : UTC 2017-06-14 23:00:25
Writing application                      : mkvmerge v9.8.0 ('Kuglblids') 64bit
Writing library                          : Lavf57.71.100

Video
ID                                       : 1
Format                                   : AVC
Format/Info                              : Advanced Video Codec
Format profile                           : [email protected]
Format settings, CABAC                   : Yes
Format settings, ReFrames                : 12 frames
Codec ID                                 : V_MPEG4/ISO/AVC
Duration                                 : 2h 41mn
Bit rate                                 : 4 300 Kbps
Width                                    : 1 280 pixels
Height                                   : 536 pixels
Display aspect ratio                     : 2.40:1
Frame rate mode                          : Constant
Frame rate                               : 24.000 fps
Color space                              : YUV
Chroma subsampling                       : 4:2:0
Bit depth                                : 8 bits
Scan type                                : Progressive
Bits/(Pixel*Frame)                       : 0.261
Stream size                              : 4.72 GiB (79%)
Writing library                          : x264 core 150 r2833M df79067
Encoding settings                        : cabac=1 / ref=12 / deblock=1:-3:-3 / analyse=0x3:0x133 / me=umh / subme=10 / psy=1 / psy_rd=1.05:0.10 / mixed_ref=1 / me_range=24 / chroma_me=1 / trellis=2 / 8x8dct=1 / cqm=0 / deadzone=21,11 / fast_pskip=0 / chroma_qp_offset=-3 / threads=5 / lookahead_threads=1 / sliced_threads=0 / nr=0 / decimate=1 / interlaced=0 / bluray_compat=0 / constrained_intra=0 / bframes=8 / b_pyramid=2 / b_adapt=2 / b_bias=0 / direct=1 / weightb=1 / open_gop=0 / weightp=2 / keyint=240 / keyint_min=24 / scenecut=40 / intra_refresh=0 / rc=2pass / mbtree=0 / bitrate=4300 / ratetol=1.0 / qcomp=0.70 / qpmin=3 / qpmax=69 / qpstep=4 / cplxblur=20.0 / qblur=0.5 / ip_ratio=1.40 / pb_ratio=1.30 / aq=2:1.00
Default                                  : Yes
Forced                                   : No

Audio #1
ID                                       : 2
Format                                   : AC-3
Format/Info                              : Audio Coding 3
Mode extension                           : CM (complete main)
Format settings, Endianness              : Big
Codec ID                                 : A_AC3
Duration                                 : 2h 41mn
Bit rate mode                            : Constant
Bit rate                                 : 256 Kbps
Channel(s)                               : 2 channels
Channel positions                        : Front: L R
Sampling rate                            : 48.0 KHz
Bit depth                                : 16 bits
Compression mode                         : Lossy
Stream size                              : 295 MiB (5%)
Language                                 : Russian
Default                                  : Yes
Forced                                   : No

Audio #2
ID                                       : 3
Format                                   : DTS
Format/Info                              : Digital Theater Systems
Mode                                     : 16
Format settings, Endianness              : Big
Codec ID                                 : A_DTS
Duration                                 : 2h 41mn
Bit rate mode                            : Constant
Bit rate                                 : 768 Kbps
Channel(s)                               : 6 channels
Channel positions                        : Front: L C R, Side: L R, LFE
Sampling rate                            : 48.0 KHz
Bit depth                                : 16 bits
Compression mode                         : Lossy
Stream size                              : 884 MiB (14%)
Language                                 : Hindi
Default                                  : No
Forced                                   : No

Text
ID                                       : 4
Format                                   : UTF-8
Codec ID                                 : S_TEXT/UTF8
Codec ID/Info                            : UTF-8 Plain Text
Language                                 : English
Default                                  : Yes
Forced                                   : No


Скриншоты:



Время раздачи: 24/7
   
Торрент: Зарегистрирован [09 янв 2018, 17:15] Индийское кино Скачать торрент Магнет ссылка
Скачать торрент
[ Размер 15.87 КБ / Просмотров 6 ]
Статус:
Проверен
 
.torrent скачан: 850 раз
Размер: 5.99 ГБ (6 430 017 398 байт)
   Стать Автором раздачи
 
 
Цитата
  • Похожие торренты
    Ответы
    Просмотры
    Последнее сообщение

Вернуться в Индийское кино

Кто сейчас на конференции

Сейчас эту тему просматривают: нет зарегистрированных пользователей и гости: 1