В ловушке / Trapped (2017) DVDRip [VO]

 Статистика раздачи 
Размер: 1.46 ГБ   |  Зарегистрирован: 09 янв 2018, 17:15   |   .torrent скачан: 0 раз
Сидеров: 0  [ 0 байт/сек ]     Личеров: 0  [ 0 байт/сек ]  
  
Аватара пользователя
Главный редактор
Главный редактор
Я на сайте
 
Раздал: 52.3 ТБ
Скачал: 2.55 ТБ
Ратио: 20.932
Сообщения: 145615
Стаж: 7 лет 11 месяцев 27 дней
Откуда: Санкт-Петербург
СообщениеДобавлено: 24 июн 2017, 14:35


В ловушке / Trapped (2017) DVDRip

Производство: Индия / Phantom Films
Жанр: Триллер

Режиссер: Викрамадитья Мотване
Актеры: Раджкумар Рао, Гитанджали Тхапа, Ёгендра Викрам Сингх, Патрик Грэхэм, Кхушбу Упадхиай ...

Описание:
Пытаясь снять жилье подешвле в пустой многоэтажке, мужчина попадает в ловушку квартиры, без еды, воды и электричества, когда ключ от двери остается снаружи.



Продолжительность: 01:41:39
Качество видео: DVDRip
Перевод: Любительский одноголосый (ХихиДок)
Субтитры: Отсутствуют

Видео: MPEG4, XviD, 720x400 (16:9), 23.976 fps, 1 658 Kbps (0.240 bit/pixel)
Аудио #1: AC-3, 44.1 KHz, 2 ch, 192 Kbps, CBR | Русский
Аудио #2: AC-3, 44.1 KHz, 2 ch, 192 Kbps, CBR | Хинди
Код: Выделить всё
Общее
Полное имя                               : C:\NNM\В ловушке\V lovushke 2017 DVDRip.avi
Формат                                   : AVI
Формат/Информация                        : Audio Video Interleave
Размер файла                             : 1,46 Гбайт
Продолжительность                        : 1 ч. 41 м.
Общий поток                              : 2049 Кбит/сек
Программа кодирования                    : VirtualDubMod 1.5.10.3 (build 2550/release)
Библиотека кодирования                   : VirtualDubMod build 2550/release

Видео
Идентификатор                            : 0
Формат                                   : MPEG-4 Visual
Профиль формата                          : Advanced Simple@L5
Параметр BVOP формата                    : Нет
Параметр QPel формата                    : Нет
Параметр GMC формата                     : Без точки перехода
Параметр матрицы формата                 : Default (H.263)
Идентификатор кодека                     : XVID
Идентификатор кодека/Подсказка           : XviD
Продолжительность                        : 1 ч. 41 м.
Битрейт                                  : 1658 Кбит/сек
Ширина                                   : 720 пикселей
Высота                                   : 400 пикселей
Соотношение сторон                       : 1,85:1
Частота кадров                           : 23,976 (24000/1001) кадра/сек
Цветовое пространство                    : YUV
Субдискретизация насыщенности            : 4:2:0
Битовая глубина                          : 8 бит
Тип развёртки                            : Прогрессивная
Метод сжатия                             : С потерями
Бит/(Пиксели*Кадры)                      : 0.240
Размер потока                            : 1,18 Гбайт (81%)
Библиотека кодирования                   : XviD 67

Аудио #1
Идентификатор                            : 1
Формат                                   : AC-3
Формат/Информация                        : Audio Coding 3
Расширение режима                        : CM (complete main)
Параметр Endianness формата              : Big
Идентификатор кодека                     : 2000
Продолжительность                        : 1 ч. 41 м.
Вид битрейта                             : Постоянный
Битрейт                                  : 192 Кбит/сек
Каналы                                   : 2 канала
Расположение каналов                     : Front: L R
Частота                                  : 44,1 КГц
Частота кадров                           : 28,711 кадров/сек (1536 spf)
Битовая глубина                          : 16 бит
Метод сжатия                             : С потерями
Размер потока                            : 140 Мбайт (9%)
Выравнивание                             : Разделение по промежуткам
Продолжительность промежутка             : 160  мс. (3,84 видеокадра)
Время предзагрузки промежутка            : 640  мс.

Аудио #2
Идентификатор                            : 2
Формат                                   : AC-3
Формат/Информация                        : Audio Coding 3
Расширение режима                        : CM (complete main)
Параметр Endianness формата              : Big
Идентификатор кодека                     : 2000
Продолжительность                        : 1 ч. 41 м.
Вид битрейта                             : Постоянный
Битрейт                                  : 192 Кбит/сек
Каналы                                   : 2 канала
Расположение каналов                     : Front: L R
Частота                                  : 44,1 КГц
Частота кадров                           : 28,711 кадров/сек (1536 spf)
Битовая глубина                          : 16 бит
Метод сжатия                             : С потерями
Размер потока                            : 140 Мбайт (9%)
Выравнивание                             : Разделение по промежуткам
Продолжительность промежутка             : 160  мс. (3,84 видеокадра)
Время предзагрузки промежутка            : 640  мс.

Скриншоты:




Время раздачи: Круглосуточно до 10 скачавших
Не забывайте говорить Спасибо. Не уходите с раздачи!   
Торрент: Зарегистрирован [09 янв 2018, 17:15] Для скачивания .torrent
необходима регистрация
Или скачать с помощью
MediaGet
Статус:
Проверен
 
.torrent скачан: 0 раз
Размер: 1.46 ГБ (1 562 447 872 байт)
   Стать Автором раздачи
   
Цитата
  • Похожие торренты
    Ответы
    Просмотры
    Последнее сообщение

Вернуться в Индийское кино

Кто сейчас на конференции

Сейчас эту тему просматривают: нет зарегистрированных пользователей и гости: 1