XLIII чемпионат СССР. Крылья Советов - ЦСКА. Второй групповой этап. 35 тур. [12.03.1989, Хоккей, TVRip/DVD5/RU]

Континентальная Хоккейная Лига, чемпионаты СССР и России, МХЛ
 Статистика раздачи 
Размер: 3.25 ГБ   |  Зарегистрирован: 27 фев 2018, 18:55   |   .torrent скачан: 0 раз
Сидеров: 5  [ 0 байт/сек ]     Личеров: 1  [ 0 байт/сек ]  
  
Аватара пользователя
Я на сайте
 
Раздал: 6.42 ТБ
Скачал: 483.69 ГБ
Ратио: 13.589
Сообщения: 243366
Стаж: 2 года 6 месяцев 24 дня

XLIII чемпионат СССР. 12.03.1989.Крылья Советов - ЦСКА.Второй групповой этап. 35 тур.
Участники: Состав ЦСКА: Алексей Ивашкин, Алексей Гусаров, Сергей Зубов, Алексей Касатонов, Владимир Константинов, Игорь Кравчук, Владимир Малахов, Игорь Малыхин, Вячеслав Фетисов, Павел Буре, Вячеслав Быков, Игорь Вязьмикин, Евгений Давыдов, Валерий Каменский, Павел Костчкин, Владимир Крутов, Игорь Ларионов, Сергей Макаров (К), Александр Могильный, Сергей Фёдоров, Андрей Хомутов, Игорь Чибирев. Тренер - Виктор Тихонов.
Продолжительность: Оригинальная ТВ трансляция. Записан только 3-й период. Хронометраж 41 минута
Язык комментариев: Комментатор матча Владимир Писаревский.
Описание: XLIII чемпионат СССР.
3 сентября 1988 года - 17 марта 1989 года
Последний чемпионат со всеми "звёздами".
В 1988-89 гг, в последний раз в истории чемпионатов СССР/России, на турнире играли все лучшие хоккеисты страны. Начиная с будущего сезона, 1989-90 гг, самые яркие советские "звёзды" перебрались через океан в поисках счастья в НХЛ. Уже в марте 1989 года Сергей Пряхин из "Крылья Советов" стал первым советским хоккеистом, получившим разрешение играть в НХЛ, за "Калгари Флэймз".
Ну а чемпионами СССР снова стало ЦСКА. Турнир состоял из двух этапов, но без финальных матчей. На втором этапе, в зачет шли матчи первого этапа только между командами попавшими в первую десятку. Вторыми финишировал "Химик" из Воскресенска, добившийся своего лучшего результата в истории. В составе команды выделялись нападающие Дмитрий Квартальном, Герман Титов, Роман Оксюта.
На третье место после 10-летнего перерыва поднялись "Крылья Советов".
Во второй раз в истории чемпионатов страны (впервые в 1961 году), среди призёров не оказалось ни "Спартака" Москва, ни "Динамо" Москва.
Доп. информация: Size: 3.25 Gb ( 3 405 754 KBytes ) - DVD-5
VTS_01 :
Play Length: 00:25:10
Video: NTSC 4:3 (720x480) VBR
Audio:
Not specified (Dolby AC3, 2 ch)
VTS_02 :
Play Length: 00:41:16
Video: NTSC 4:3 (720x480) VBR
Audio:
Not specified (Dolby AC3, 2 ch)
Audio #1: AC3, 2/0ch, 256Kbps, Delay -66 mSec
# 1. Сергей Макаров (ЦСКА) - 54 очка (21+33)
# 2. Владимир Крутов (ЦСКА) - 41 (20+21)
# 3. Анатолий Чистяков (Трактор Ч) - 40 (9+21)
# 4. Вячеслав Быков (ЦСКА) - 36 (16+20)
# 5. Андрей Хомутов (ЦСКА) - 35 (19+16)
Лучший хоккеист сезона (приз еженедельника "Футбол-Хоккей") - Сергей Макаров (ЦСКА)
Приз "Гроза авторитетов": Сокол Киев
Приз "Кубок Прогресса" - Химик Воскресенск
Приз имени Всеволода Боброва (за наибольшее количество заброшенных шайб) - ЦСКА
Приз "Лучшему новичку"- Павел Буре (ЦСКА)
Приз "Меткому защитнику" - В.Тюриков (Спартак М)
Приз справедливой игры (учреждён журналом "Огонёк") - ЦСКА
Приз "Три и более" (за наибольшее количество "хет-триков") - Д.Квартальнов (Химик В)
Приз "Три бомбардира" (самой результативной тройке, учреждён газетой "Труд") - С.Макаров - И.Ларионов - В.Крутов (ЦСКА)
Самый крупный счёт чемпионата: ЦСКА - "Динамо" Харьков 15:2
В предверии сезона, победителями турнира на призы газеты "Советский Спорт" стали Крылья Советов, Спартак М, Динамо Р и Химик В
Title: Чемпионат СССР 1988-89 ЦСКА-Крылья Советов [torrents.ru]
Size: 3.25 Gb ( 3 405 754,00 KBytes ) - DVD-5
Enabled regions: 1, 2, 3, 4, 5, 6, 7, 8
VTS_01 :
Play Length: 00:25:10
Video: NTSC 4:3 (720x480) VBR
Audio:
Not specified (Dolby AC3, 2 ch)
VTS_02 :
Play Length: 00:41:16
Video: NTSC 4:3 (720x480) VBR
Audio:
Not specified (Dolby AC3, 2 ch)
* Menus Information *
VIDEO_TS Menu
Video:
NTSC 4:3 (720x480) VBR
Language Unit :
Language Unit :
VTS_01 Menu
Video:
NTSC 4:3 (720x480) VBR
Auto Pan&Scan, Auto Letterboxed
Language Unit :
Subpicture Menu
Angle menu
Language Unit :
Subpicture Menu
Angle menu
Language Unit :
Subpicture Menu
Angle menu
Language Unit :
Subpicture Menu
Angle menu
Language Unit :
Subpicture Menu
Angle menu
VTS_02 Menu
Video:
NTSC 4:3 (720x480) VBR
Auto Pan&Scan, Auto Letterboxed
Language Unit :
Subpicture Menu
Angle menu
Language Unit :
Subpicture Menu
Angle menu
Language Unit :
Subpicture Menu
Angle menu
Language Unit :
Subpicture Menu
Angle menu
Language Unit :
Subpicture Menu
Angle menu
Общее
Полное имя : H:\_video\Sport\Хоккей\СССР\Чемпионат СССР 1988-89 ЦСКА-Крылья Советов [torrents.ru]\VIDEO_TS\VIDEO_TS.BUP
Формат : DVD Video
Профиль формата : Menu
Размер файла : 6,00 Кбайт
Режим общего битрейта : Переменный
FileExtension_Invalid : ifo
Видео
Идентификатор : 224 (0xE0)
Формат : MPEG Video
Версия формата : Version 2
Вид битрейта : Переменный
Ширина : 720 пикселей
Высота : 480 пикселей
Соотношение сторон : 4:3
Частота кадров : 29,970 (29970/1000) кадров/сек
Стандарт вещания : NTSC
Метод сжатия : С потерями
Общее
Полное имя : H:\_video\Sport\Хоккей\СССР\Чемпионат СССР 1988-89 ЦСКА-Крылья Советов [torrents.ru]\VIDEO_TS\VIDEO_TS.IFO
Формат : DVD Video
Профиль формата : Menu
Размер файла : 6,00 Кбайт
Режим общего битрейта : Переменный
Видео
Идентификатор : 224 (0xE0)
Формат : MPEG Video
Версия формата : Version 2
Вид битрейта : Переменный
Ширина : 720 пикселей
Высота : 480 пикселей
Соотношение сторон : 4:3
Частота кадров : 29,970 (29970/1000) кадров/сек
Стандарт вещания : NTSC
Метод сжатия : С потерями
Общее
Полное имя : H:\_video\Sport\Хоккей\СССР\Чемпионат СССР 1988-89 ЦСКА-Крылья Советов [torrents.ru]\VIDEO_TS\VTS_01_0.BUP
Формат : DVD Video
Профиль формата : Program
Размер файла : 26,0 Кбайт
Продолжительность : 25 м. 10 с.
Режим общего битрейта : Переменный
Общий поток : 141 бит/сек
FileExtension_Invalid : ifo
Видео
Идентификатор : 224 (0xE0)
Формат : MPEG Video
Версия формата : Version 2
Продолжительность : 25 м. 10 с.
Вид битрейта : Переменный
Ширина : 720 пикселей
Высота : 480 пикселей
Соотношение сторон : 4:3
Частота кадров : 29,970 (29970/1000) кадров/сек
Стандарт вещания : NTSC
Метод сжатия : С потерями
Аудио
Идентификатор : 128 (0x80)
Формат : AC-3
Формат/Информация : Audio Coding 3
Продолжительность : 25 м. 10 с.
Каналы : 2 канала
Частота : 48,0 КГц
Метод сжатия : С потерями
Меню
Продолжительность : 25 м. 10 с.
00:00:00.000 : Chapter 1
00:25:09.000 : Chapter 2
List (Audio) : 0
Общее
Полное имя : H:\_video\Sport\Хоккей\СССР\Чемпионат СССР 1988-89 ЦСКА-Крылья Советов [torrents.ru]\VIDEO_TS\VTS_01_0.IFO
Формат : DVD Video
Профиль формата : Program
Размер файла : 26,0 Кбайт
Продолжительность : 25 м. 10 с.
Режим общего битрейта : Переменный
Общий поток : 141 бит/сек
Видео
Идентификатор : 224 (0xE0)
Формат : MPEG Video
Версия формата : Version 2
Продолжительность : 25 м. 10 с.
Вид битрейта : Переменный
Ширина : 720 пикселей
Высота : 480 пикселей
Соотношение сторон : 4:3
Частота кадров : 29,970 (29970/1000) кадров/сек
Стандарт вещания : NTSC
Метод сжатия : С потерями
Аудио
Идентификатор : 128 (0x80)
Формат : AC-3
Формат/Информация : Audio Coding 3
Продолжительность : 25 м. 10 с.
Каналы : 2 канала
Частота : 48,0 КГц
Метод сжатия : С потерями
Меню
Продолжительность : 25 м. 10 с.
00:00:00.000 : Chapter 1
00:25:09.000 : Chapter 2
List (Audio) : 0
Общее
Полное имя : H:\_video\Sport\Хоккей\СССР\Чемпионат СССР 1988-89 ЦСКА-Крылья Советов [torrents.ru]\VIDEO_TS\VTS_01_1.VOB
Формат : MPEG-PS
Размер файла : 1024 Мбайт
Продолжительность : 19 м. 17 с.
Режим общего битрейта : Переменный
Общий поток : 7422 Кбит/сек
Видео
Идентификатор : 224 (0xE0)
Формат : MPEG Video
Версия формата : Version 2
Профиль формата : Main@Main
Параметр BVOP формата : Да
Параметр матрицы формата : Выборочная
Параметр GOP формата : M=3, N=15
Структура изображения : Frame
Продолжительность : 19 м. 17 с.
Вид битрейта : Переменный
Битрейт : 7018 Кбит/сек
Максимальный битрейт : 7144 Кбит/сек
Ширина : 720 пикселей
Высота : 480 пикселей
Соотношение сторон : 4:3
Частота кадров : 29,970 (30000/1001) кадров/сек
Стандарт вещания : NTSC
Цветовое пространство : YUV
Субдискретизация насыщенности : 4:2:0
Битовая глубина : 8 бит
Тип развёртки : Чересстрочная
Порядок развёртки : Верхнее поле первое
Метод сжатия : С потерями
Бит/(Пиксели*Кадры) : 0.678
Временной код первого кадра : 01:21:03:00
Оригинал временного кода : Group of pictures header
GOP, открыто/закрыто : Открыто
Размер потока : 968 Мбайт (95%)
Основные цвета : BT.601 NTSC
Характеристики трансфера : BT.601
Коэффициенты матрицы : BT.601
Аудио
Идентификатор : 189 (0xBD)-128 (0x80)
Формат : AC-3
Формат/Информация : Audio Coding 3
Параметр Endianness формата : Big
Режим смешивания : DVD-Video
Продолжительность : 19 м. 17 с.
Вид битрейта : Постоянный
Битрейт : 256 Кбит/сек
Каналы : 2 канала
Расположение каналов : Front: L R
Частота : 48,0 КГц
Частота кадров : 31,250 кадров/сек (1536 SPF)
Битовая глубина : 16 бит
Метод сжатия : С потерями
Задержка видео : -282 мс.
Размер потока : 35,3 Мбайт (3%)
ServiceKind/String : Complete Main
Меню
Общее
Полное имя : H:\_video\Sport\Хоккей\СССР\Чемпионат СССР 1988-89 ЦСКА-Крылья Советов [torrents.ru]\VIDEO_TS\VTS_01_2.VOB
Формат : MPEG-PS
Размер файла : 314 Мбайт
Продолжительность : 5 м. 54 с.
Режим общего битрейта : Переменный
Общий поток : 7421 Кбит/сек
Видео
Идентификатор : 224 (0xE0)
Формат : MPEG Video
Версия формата : Version 2
Профиль формата : Main@Main
Параметр BVOP формата : Да
Параметр матрицы формата : Выборочная
Параметр GOP формата : M=3, N=15
Структура изображения : Frame
Продолжительность : 5 м. 54 с.
Вид битрейта : Переменный
Битрейт : 7017 Кбит/сек
Максимальный битрейт : 7144 Кбит/сек
Ширина : 720 пикселей
Высота : 480 пикселей
Соотношение сторон : 4:3
Частота кадров : 29,970 (30000/1001) кадров/сек
Стандарт вещания : NTSC
Цветовое пространство : YUV
Субдискретизация насыщенности : 4:2:0
Битовая глубина : 8 бит
Тип развёртки : Чересстрочная
Порядок развёртки : Верхнее поле первое
Метод сжатия : С потерями
Бит/(Пиксели*Кадры) : 0.677
Временной код первого кадра : 01:40:19:15
Оригинал временного кода : Group of pictures header
GOP, открыто/закрыто : Открыто
Размер потока : 296 Мбайт (94%)
Основные цвета : BT.601 NTSC
Характеристики трансфера : BT.601
Коэффициенты матрицы : BT.601
Аудио
Идентификатор : 189 (0xBD)-128 (0x80)
Формат : AC-3
Формат/Информация : Audio Coding 3
Параметр Endianness формата : Big
Режим смешивания : DVD-Video
Продолжительность : 5 м. 54 с.
Вид битрейта : Постоянный
Битрейт : 256 Кбит/сек
Каналы : 2 канала
Расположение каналов : Front: L R
Частота : 48,0 КГц
Частота кадров : 31,250 кадров/сек (1536 SPF)
Битовая глубина : 16 бит
Метод сжатия : С потерями
Задержка видео : -230 мс.
Размер потока : 10,8 Мбайт (3%)
ServiceKind/String : Complete Main
Меню
Общее
Полное имя : H:\_video\Sport\Хоккей\СССР\Чемпионат СССР 1988-89 ЦСКА-Крылья Советов [torrents.ru]\VIDEO_TS\VTS_02_0.BUP
Формат : DVD Video
Профиль формата : Program
Размер файла : 34,0 Кбайт
Продолжительность : 41 м. 16 с.
Режим общего битрейта : Переменный
Общий поток : 112 бит/сек
FileExtension_Invalid : ifo
Видео
Идентификатор : 224 (0xE0)
Формат : MPEG Video
Версия формата : Version 2
Продолжительность : 41 м. 16 с.
Вид битрейта : Переменный
Ширина : 720 пикселей
Высота : 480 пикселей
Соотношение сторон : 4:3
Частота кадров : 29,970 (29970/1000) кадров/сек
Стандарт вещания : NTSC
Метод сжатия : С потерями
Аудио
Идентификатор : 128 (0x80)
Формат : AC-3
Формат/Информация : Audio Coding 3
Продолжительность : 41 м. 16 с.
Каналы : 2 канала
Частота : 48,0 КГц
Метод сжатия : С потерями
Меню
Продолжительность : 41 м. 16 с.
00:00:00.000 : Chapter 1
List (Audio) : 0
Общее
Полное имя : H:\_video\Sport\Хоккей\СССР\Чемпионат СССР 1988-89 ЦСКА-Крылья Советов [torrents.ru]\VIDEO_TS\VTS_02_0.IFO
Формат : DVD Video
Профиль формата : Program
Размер файла : 34,0 Кбайт
Продолжительность : 41 м. 16 с.
Режим общего битрейта : Переменный
Общий поток : 112 бит/сек
Видео
Идентификатор : 224 (0xE0)
Формат : MPEG Video
Версия формата : Version 2
Продолжительность : 41 м. 16 с.
Вид битрейта : Переменный
Ширина : 720 пикселей
Высота : 480 пикселей
Соотношение сторон : 4:3
Частота кадров : 29,970 (29970/1000) кадров/сек
Стандарт вещания : NTSC
Метод сжатия : С потерями
Аудио
Идентификатор : 128 (0x80)
Формат : AC-3
Формат/Информация : Audio Coding 3
Продолжительность : 41 м. 16 с.
Каналы : 2 канала
Частота : 48,0 КГц
Метод сжатия : С потерями
Меню
Продолжительность : 41 м. 16 с.
00:00:00.000 : Chapter 1
List (Audio) : 0
Общее
Полное имя : H:\_video\Sport\Хоккей\СССР\Чемпионат СССР 1988-89 ЦСКА-Крылья Советов [torrents.ru]\VIDEO_TS\VTS_02_1.VOB
Формат : MPEG-PS
Размер файла : 1024 Мбайт
Продолжительность : 19 м. 17 с.
Режим общего битрейта : Переменный
Общий поток : 7420 Кбит/сек
Видео
Идентификатор : 224 (0xE0)
Формат : MPEG Video
Версия формата : Version 2
Профиль формата : Main@Main
Параметр BVOP формата : Да
Параметр матрицы формата : Выборочная
Параметр GOP формата : M=3, N=15
Структура изображения : Frame
Продолжительность : 19 м. 17 с.
Вид битрейта : Переменный
Битрейт : 7016 Кбит/сек
Максимальный битрейт : 7144 Кбит/сек
Ширина : 720 пикселей
Высота : 480 пикселей
Соотношение сторон : 4:3
Частота кадров : 29,970 (30000/1001) кадров/сек
Стандарт вещания : NTSC
Цветовое пространство : YUV
Субдискретизация насыщенности : 4:2:0
Битовая глубина : 8 бит
Тип развёртки : Чересстрочная
Порядок развёртки : Верхнее поле первое
Метод сжатия : С потерями
Бит/(Пиксели*Кадры) : 0.677
Временной код первого кадра : 00:00:00:00
Оригинал временного кода : Group of pictures header
GOP, открыто/закрыто : Открыто
GOP, открыто/закрыто на первом кадре : Закрыто
Размер потока : 968 Мбайт (95%)
Основные цвета : BT.601 NTSC
Характеристики трансфера : BT.601
Коэффициенты матрицы : BT.601
Аудио
Идентификатор : 189 (0xBD)-128 (0x80)
Формат : AC-3
Формат/Информация : Audio Coding 3
Параметр Endianness формата : Big
Режим смешивания : DVD-Video
Продолжительность : 19 м. 17 с.
Вид битрейта : Постоянный
Битрейт : 256 Кбит/сек
Каналы : 2 канала
Расположение каналов : Front: L R
Частота : 48,0 КГц
Частота кадров : 31,250 кадров/сек (1536 SPF)
Битовая глубина : 16 бит
Метод сжатия : С потерями
Размер потока : 35,3 Мбайт (3%)
ServiceKind/String : Complete Main
Меню
Общее
Полное имя : H:\_video\Sport\Хоккей\СССР\Чемпионат СССР 1988-89 ЦСКА-Крылья Советов [torrents.ru]\VIDEO_TS\VTS_02_2.VOB
Формат : MPEG-PS
Размер файла : 964 Мбайт
Продолжительность : 22 м. 0 с.
Режим общего битрейта : Переменный
Общий поток : 6123 Кбит/сек
Видео
Идентификатор : 224 (0xE0)
Формат : MPEG Video
Версия формата : Version 2
Профиль формата : Main@Main
Параметр BVOP формата : Да
Параметр матрицы формата : Выборочная
Параметр GOP формата : M=3, N=15
Структура изображения : Frame
Продолжительность : 22 м. 0 с.
Вид битрейта : Переменный
Битрейт : 5745 Кбит/сек
Максимальный битрейт : 7144 Кбит/сек
Ширина : 720 пикселей
Высота : 480 пикселей
Соотношение сторон : 4:3
Частота кадров : 29,970 (30000/1001) кадров/сек
Стандарт вещания : NTSC
Цветовое пространство : YUV
Субдискретизация насыщенности : 4:2:0
Битовая глубина : 8 бит
Тип развёртки : Чересстрочная
Порядок развёртки : Верхнее поле первое
Метод сжатия : С потерями
Бит/(Пиксели*Кадры) : 0.555
Временной код первого кадра : 00:19:16:15
Оригинал временного кода : Group of pictures header
GOP, открыто/закрыто : Открыто
Размер потока : 905 Мбайт (94%)
Основные цвета : BT.601 NTSC
Характеристики трансфера : BT.601
Коэффициенты матрицы : BT.601
Аудио
Идентификатор : 189 (0xBD)-128 (0x80)
Формат : AC-3
Формат/Информация : Audio Coding 3
Параметр Endianness формата : Big
Режим смешивания : DVD-Video
Продолжительность : 22 м. 0 с.
Вид битрейта : Постоянный
Битрейт : 256 Кбит/сек
Каналы : 2 канала
Расположение каналов : Front: L R
Частота : 48,0 КГц
Частота кадров : 31,250 кадров/сек (1536 SPF)
Битовая глубина : 16 бит
Метод сжатия : С потерями
Задержка видео : -283 мс.
Размер потока : 40,3 Мбайт (4%)
ServiceKind/String : Complete Main
Меню

4:1
Не забывайте говорить Спасибо. Не уходите с раздачи!   
Торрент: Зарегистрирован [27 фев 2018, 18:55]
Статус:
Проверен
 
.torrent скачан: 0 раз
Хэш: 216bf93eff7b546966f74ca9e247ed88ad20d73c
Размер: 3.25 ГБ (3 487 492 096 байт)
   Стать Автором раздачи
   
Цитата
  • Похожие торренты
    Ответы
    Просмотры
    Последнее сообщение

Вернуться в КХЛ

Кто сейчас на конференции

Сейчас эту тему просматривают: нет зарегистрированных пользователей и гости: 1