Кубок Спартака 2001. "Буре-Team" - "Ягр-Team" [2001, Хоккей, TVRip]

Континентальная Хоккейная Лига, чемпионаты СССР и России, МХЛ
 Статистика раздачи 
Размер: 1.59 ГБ   |  Зарегистрирован: 27 фев 2018, 18:53   |   .torrent скачан: 0 раз
Сидеров: 4  [ 0 байт/сек ]     Личеров: 0  [ 0 байт/сек ]  
  
Аватара пользователя
 
Раздал: 6.17 ТБ
Скачал: 195.34 ГБ
Ратио: 32.348
Сообщения: 239338
Стаж: 2 года 5 месяцев

Кубок Спартака 2001. "Буре- Team"-" Ягр- Team"
Год выпуска: 2001
Вид спорта: Хоккей
Участники: Россия- Чехия
Комментарий: Профессиональный (двухголосый)
Описание: Состав команды "Буре-team": Волков, Брызгалов; Малахов-Кравчук, Д.Марков-Бякин, Д.Калинин-Чебатуркин; П.Буре-Ларионов-Харитонов, А.Морозов-Жамнов-Кваша, Николишин-Королюк-Буцаев. Состав команды "Ягр-team": Гниличка, Вокоун; Ф.Каберле-Т.Каберле, Розиваль-Меличар, Пилар - Горачек; Ягр-Ружичка-Страка, Тенкрат-Беранек-Ручински, Варада-Я.Грдина-Проспал, Мика. Матч комментирует Андрей Голованов и Евгений Кузнецов.
Доп. информация: Полностью записан 2 и 3 период + нарезка интересных моментов из 1 периода.Красивая игра, много голов Качайте, не пожалеете
Качество: TVRip
Видео: Video: 720x576 (1.25:1), 25 fps, ATI YVU12 4:2:0 Planar ~3094 kbps avg, 0.30 bit/pixel
Аудио: Audio: 44.100 kHz, MPEG Layer 3, 2 ch, ~192.00 kbps avg
Общее
Полное имя : H:\_video\Sport\Хоккей\КХЛ\Bure- Jagr\test.avi
Формат : AVI
Формат/Информация : Audio Video Interleave
Размер файла : 652 Мбайт
Продолжительность : 27 м. 38 с.
Общий поток : 3296 Кбит/сек
IsTruncated : Yes
Видео
Идентификатор : 0
Формат : MPEG-4 Visual
Профиль формата : Simple@L3
Параметр BVOP формата : 2
Параметр QPel формата : Нет
Параметр GMC формата : Без точки перехода
Параметр матрицы формата : Default (H.263)
Режим смешивания : Сжатый битовый поток
Идентификатор кодека : XVID
Идентификатор кодека/Подсказка : XviD
Продолжительность : 27 м. 38 с.
Битрейт : 3095 Кбит/сек
Ширина : 720 пикселей
Высота : 576 пикселей
Соотношение сторон : 5:4
Частота кадров : 25,000 кадров/сек
Стандарт вещания : PAL
Цветовое пространство : YUV
Субдискретизация насыщенности : 4:2:0
Битовая глубина : 8 бит
Тип развёртки : Прогрессивная
Метод сжатия : С потерями
Бит/(Пиксели*Кадры) : 0.298
Размер потока : 612 Мбайт (94%)
Библиотека кодирования : XviD 1.1.0 Beta1 (UTC 2005-01-16)
Аудио
Идентификатор : 1
Формат : MPEG Audio
Версия формата : Version 1
Профиль формата : Layer 3
Идентификатор кодека : 55
Идентификатор кодека/Подсказка : MP3
Продолжительность : 27 м. 38 с.
Вид битрейта : Постоянный
Битрейт : 192 Кбит/сек
Каналы : 2 канала
Частота : 44,1 КГц
Метод сжатия : С потерями
Задержка видео : 26 мс.
Размер потока : 38,0 Мбайт (6%)
Выравнивание : Разделение по промежуткам
Продолжительность промежутка : 40 мс. (1,00 видеокадр)
Заголовок : Audio Stream
Общее
Полное имя : H:\_video\Sport\Хоккей\КХЛ\Bure- Jagr\test_02.avi
Формат : AVI
Формат/Информация : Audio Video Interleave
Размер файла : 652 Мбайт
Продолжительность : 29 м. 57 с.
Общий поток : 3043 Кбит/сек
IsTruncated : Yes
Видео
Идентификатор : 0
Формат : MPEG-4 Visual
Профиль формата : Simple@L3
Параметр BVOP формата : 2
Параметр QPel формата : Нет
Параметр GMC формата : Без точки перехода
Параметр матрицы формата : Default (H.263)
Режим смешивания : Сжатый битовый поток
Идентификатор кодека : XVID
Идентификатор кодека/Подсказка : XviD
Продолжительность : 29 м. 57 с.
Битрейт : 2841 Кбит/сек
Ширина : 720 пикселей
Высота : 576 пикселей
Соотношение сторон : 5:4
Частота кадров : 25,000 кадров/сек
Стандарт вещания : PAL
Цветовое пространство : YUV
Субдискретизация насыщенности : 4:2:0
Битовая глубина : 8 бит
Тип развёртки : Прогрессивная
Метод сжатия : С потерями
Бит/(Пиксели*Кадры) : 0.274
Размер потока : 609 Мбайт (93%)
Библиотека кодирования : XviD 1.1.0 Beta1 (UTC 2005-01-16)
Аудио
Идентификатор : 1
Формат : MPEG Audio
Версия формата : Version 1
Профиль формата : Layer 3
Идентификатор кодека : 55
Идентификатор кодека/Подсказка : MP3
Продолжительность : 29 м. 57 с.
Вид битрейта : Постоянный
Битрейт : 192 Кбит/сек
Каналы : 2 канала
Частота : 44,1 КГц
Метод сжатия : С потерями
Задержка видео : 26 мс.
Размер потока : 41,1 Мбайт (6%)
Выравнивание : Разделение по промежуткам
Продолжительность промежутка : 40 мс. (1,00 видеокадр)
Заголовок : Audio Stream
Общее
Полное имя : H:\_video\Sport\Хоккей\КХЛ\Bure- Jagr\test_03.avi
Формат : AVI
Формат/Информация : Audio Video Interleave
Размер файла : 323 Мбайт
Продолжительность : 13 м. 31 с.
Общий поток : 3340 Кбит/сек
IsTruncated : Yes
Видео
Идентификатор : 0
Формат : MPEG-4 Visual
Профиль формата : Simple@L3
Параметр BVOP формата : 2
Параметр QPel формата : Нет
Параметр GMC формата : Без точки перехода
Параметр матрицы формата : Default (H.263)
Режим смешивания : Сжатый битовый поток
Идентификатор кодека : XVID
Идентификатор кодека/Подсказка : XviD
Продолжительность : 13 м. 31 с.
Битрейт : 3138 Кбит/сек
Ширина : 720 пикселей
Высота : 576 пикселей
Соотношение сторон : 5:4
Частота кадров : 25,000 кадров/сек
Стандарт вещания : PAL
Цветовое пространство : YUV
Субдискретизация насыщенности : 4:2:0
Битовая глубина : 8 бит
Тип развёртки : Прогрессивная
Метод сжатия : С потерями
Бит/(Пиксели*Кадры) : 0.303
Размер потока : 304 Мбайт (94%)
Библиотека кодирования : XviD 1.1.0 Beta1 (UTC 2005-01-16)
Аудио
Идентификатор : 1
Формат : MPEG Audio
Версия формата : Version 1
Профиль формата : Layer 3
Идентификатор кодека : 55
Идентификатор кодека/Подсказка : MP3
Продолжительность : 13 м. 31 с.
Вид битрейта : Постоянный
Битрейт : 192 Кбит/сек
Каналы : 2 канала
Частота : 44,1 КГц
Метод сжатия : С потерями
Задержка видео : 26 мс.
Размер потока : 18,6 Мбайт (6%)
Выравнивание : Разделение по промежуткам
Продолжительность промежутка : 40 мс. (1,00 видеокадр)
Заголовок : Audio Stream
Не забывайте говорить Спасибо. Не уходите с раздачи!   
Торрент: Зарегистрирован [27 фев 2018, 18:53]
Статус:
Проверен
 
.torrent скачан: 0 раз
Хэш: 0e1a52a1ac7b25bf16c79c80e17a64192a289b02
Размер: 1.59 ГБ (1 705 952 256 байт)
   Стать Автором раздачи
   
Цитата
  • Похожие торренты
    Ответы
    Просмотры
    Последнее сообщение

Вернуться в КХЛ

Кто сейчас на конференции

Сейчас эту тему просматривают: нет зарегистрированных пользователей и гости: 1