Нация Z / Нация Зомби / Z Nation (2017) WEB-DL [H.264/1080p-LQ] (сезон 4, серии 1-13 из 13) OMSKBIRD [AD]

 Статистика раздачи 
Размер: 46.89 ГБ   |  Зарегистрирован: 22 дек 2017, 17:05   |   .torrent скачан: 8 раз
Сидеров: 8  [ 0 байт/сек ]     Личеров: 6  [ 0 байт/сек ]  
  
Аватара пользователя
 
Раздал: 6.64 ТБ
Скачал: 597.93 ГБ
Ратио: 11.363
Сообщения: 248647
Стаж: 2 года 8 месяцев 20 дней

Нация Z / Нация Зомби / Z Nation (2017) WEB-DL [H.264/1080p-LQ] (сезон 4, серии 1-13 из 13) OMSKBIRD

Производство: США / Asylum, The, Go2 Digital Media
Жанр: ужасы, фантастика, боевик, драма, комедия

Режиссер: Крэйг Энглер, Джон Хайамс, Карл Шэфер
Актеры: Том Эверетт Скотт, Майкл Уэлш, Келлита Смит, Анастасия Баранова, Расселл Ходжкинсон, Кит Аллан и др.

Описание:
Спустя три года после того, как вирус зомби распространился и выпотрошил всю страну, команда героев должна перевезти необычный груз. Это - единственный выживший после непосредственного воздействия чумы. В Калифорнии последняя функционирующая вирусная лаборатория ждет его крови. Хотя антитела, которые он несет, являются последней надеждой мира получить вакцину, он скрывает мрачную тайну, которая угрожает им всем. Выживание человечества под угрозой, когда разношерстная группа предпринимает путешествие длиной в пять тысяч километров по опустошенной, постапокалиптической Америке.

http://www.imdb.com/title/tt3843168/?ref_=plg_rt_1
Возраст: 16+ (зрителям, достигшим 16 лет)

Продолжительность: ~00:44:00 серия
Качество видео: WEB-DL
Перевод: Многоголосый закадровый, профессиональный | OMSKBIRD
Субтитры: английские
Реклама: присутствуют аудио вставки рекламы

Видео: AVC/H.264, 1920х1080 (16:9), ~9516 kbps
Аудио # 1: AC-3, 6 ch, 384 kbps, CBR - русский, многоголосый закадровый
Аудио # 2: AC-3, 6 ch, 384 kbps, CBR - английский
Код: Выделить всё
General
Unique ID                   : 210704506580963358318939728419028539400 (0x9E84363CBACCB8BD9C670F68AE811808)
Complete name               : H:\Мои Документы\Видео\РАЗДАЧИ\Нация Зомби\Z Nation S04 WEB-DL 1080p (OMSKBIRD)\Z Nation S04E01 WEB-DL 1080p (OMSKBIRD).mkv
Format                      : Matroska
Format version              : Version 2
File size                   : 3.16 GiB
Duration                    : 43 min 9 s
Overall bit rate mode       : Variable
Overall bit rate            : 10.5 Mb/s
Encoded date                : UTC 2017-09-30 19:01:22
Writing application         : mkvmerge v4.0.0 ('The Stars were mine') сборка от Jun  6 2010 16:18:42
Writing library             : libebml v1.0.0 + libmatroska v1.0.0

Video
ID                          : 1
Format                      : AVC
Format/Info                 : Advanced Video Codec
Format profile              : High@L4
Format settings, CABAC      : Yes
Format settings, RefFrames  : 4 frames
Codec ID                    : V_MPEG4/ISO/AVC
Duration                    : 43 min 9 s
Bit rate mode               : Variable
Bit rate                    : 9 516 kb/s
Maximum bit rate            : 15.0 Mb/s
Width                       : 1 920 pixels
Height                      : 1 080 pixels
Display aspect ratio        : 16:9
Frame rate mode             : Constant
Frame rate                  : 23.976 (24000/1001) FPS
Color space                 : YUV
Chroma subsampling          : 4:2:0
Bit depth                   : 8 bits
Scan type                   : Progressive
Bits/(Pixel*Frame)          : 0.191
Stream size                 : 2.87 GiB (91%)
Default                     : No
Forced                      : No
Color range                 : Limited
Color primaries             : BT.709
Transfer characteristics    : BT.709
Matrix coefficients         : BT.709

Audio #1
ID                          : 2
Format                      : AC-3
Format/Info                 : Audio Coding 3
Format settings, Endianness : Big
Codec ID                    : A_AC3
Duration                    : 43 min 9 s
Bit rate mode               : Constant
Bit rate                    : 384 kb/s
Channel(s)                  : 6 channels
Channel positions           : Front: L C R, Side: L R, LFE
Sampling rate               : 48.0 kHz
Frame rate                  : 31.250 FPS (1536 SPF)
Bit depth                   : 16 bits
Compression mode            : Lossy
Stream size                 : 119 MiB (4%)
Language                    : Russian
Service kind                : Complete Main
Default                     : Yes
Forced                      : No

Audio #2
ID                          : 3
Format                      : AC-3
Format/Info                 : Audio Coding 3
Format settings, Endianness : Big
Codec ID                    : A_AC3
Duration                    : 43 min 9 s
Bit rate mode               : Constant
Bit rate                    : 384 kb/s
Channel(s)                  : 6 channels
Channel positions           : Front: L C R, Side: L R, LFE
Sampling rate               : 48.0 kHz
Frame rate                  : 31.250 FPS (1536 SPF)
Bit depth                   : 16 bits
Compression mode            : Lossy
Stream size                 : 119 MiB (4%)
Language                    : English
Service kind                : Complete Main
Default                     : No
Forced                      : No

Text
ID                          : 4
Format                      : UTF-8
Codec ID                    : S_TEXT/UTF8
Codec ID/Info               : UTF-8 Plain Text
Title                       : English
Language                    : English
Default                     : No
Forced                      : No

Перевод • Анна Якименко
Роли озвучивали • Павел Ярощик, Алексей Гнеушев, Ольга Федорова
Звукорежиссер • Павел Квентов
Постер • Ксения Просветова
Релиз подготовил • Gater

Скриншоты:



Время раздачи: 13:00-21:00 (до появления первых 3-5 скачавших)
Не забывайте говорить Спасибо. Не уходите с раздачи!   
Торрент: Зарегистрирован [22 дек 2017, 17:05]
Статус:
Проверен
 
.torrent скачан: 8 раз
Хэш: 68da194e95ecd444d12159e6c71b331c92552b13
Размер: 46.89 ГБ (50 345 323 282 байт)
   Стать Автором раздачи
   
Цитата

Вернуться в Нация Z / Z Nation

Кто сейчас на конференции

Сейчас эту тему просматривают: нет зарегистрированных пользователей и гости: 1