Мавзолей для шлюхи / Mausolée pour une garce (2001) DVDRip-AVC | P

 Статистика раздачи 
Размер: 6.18 ГБ   |  Зарегистрирован: 15 сен 2020, 08:57   |   .torrent скачан: 115 раз
Сидеров: 14  [ 0 байт/сек ]     Личеров: 2  [ 0 байт/сек ]  
  
Аватара пользователя
Я на сайте
 
Раздал: 6.64 ТБ
Скачал: 597.93 ГБ
Ратио: 11.363
Сообщения: 272368
Стаж: 3 года 5 месяцев 29 дней


Название: Мавзолей для шлюхи
Оригинальное название: Mausolée pour une garce
Год выхода: 2001
Страна: Франция
Студия: France 3 (FR 3), Nelka Films, Télévision Suisse-Romande (TSR)
Продолжительность: 01:33:43, 01:27:22
Жанр: триллер, криминал, ...
Режиссер: Арно Селиньяк
В ролях: Сильви Вартан, Франсис Юстер, Жак Вебер, Амели Доре, Тьерри Новик, Natalia Dontcheva, Лоран Ольмедо, Чик Ортега, Марианн Гров, Jean Estelle-Vaisset, Jean-Pierre Fouque, Ana Saragoca, Рэкуэл Энрикес, Педро Лагина, Филипп Леруа, Карла Оливейра, ...

Перевод:
Профессиональный (многоголосый, закадровый) R5 Cinema Prestige
Субтитры

О фильме: Двухсерийная экранизация бестселлера французского писателя Фредерика Дара.
Аньес Тарид живет в роскошном доме со вторым мужем, удачливым бизнесменом Анри, и 18-летней дочерью Евой от первого брака. Ева мечется по барам, заводя случайные знакомства, Анри с трудом скрывает свою страсть к падчерице, а Аньес встречается с молодым красавцем Эрве, готовым ради своей любовницы на что угодно. И однажды она приказывает ему убить пьяницу-клошара по прозвищу Нотариус. Что может быть общего между респектабельной дамой и опустившимся бродягой?..…



Кодек: x264
Качество: DVDRip-AVC
Видео: 928x572 , 4500 kbps, 25 fps
Аудио #1: AC-3, 2 ch, 192 kbps (Rus) - MVO R5 Cinema Prestige
Аудио #2: AC-3, 2 ch, 192 kbps (Fre)
Субтитры: Русские (VobSub)

За исходник спасибо - GeimsLast

x264 [info]: frame I:909 Avg QP:16.76 size: 75819
x264 [info]: frame P:29708 Avg QP:19.26 size: 38950
x264 [info]: frame B:109969 Avg QP:21.60 size: 17612
x264 [info]: consecutive B-frames: 1.2% 1.7% 7.3% 21.5% 20.4% 43.3% 3.3% 0.9% 0.3%

Общее
Уникальный идентификатор : 210877719395926862181304772928168349526 (0x9EA59249D15C445A82C7C57817154F56)
Полное имя : Мавзолей для шлюхи 1 (Mausolée pour une garce) 2001 DVDRip.mkv
Формат : Matroska
Версия формата : Version 2
Размер файла : 3,20 Гбайт
Продолжительность : 1 ч. 33 м.
Общий поток : 4887 Кбит/сек
Дата кодирования : UTC 2016-01-24 21:19:24
Программа кодирования : mkvmerge v4.0.0 ('The Stars were mine') сборка от Jun 6 2010 16:18:42
Библиотека кодирования : libebml v1.0.0 + libmatroska v1.0.0

Видео
Идентификатор : 1
Формат : AVC
Формат/Информация : Advanced Video Codec
Профиль формата : High@L4.1
Параметр CABAC формата : Да
Параметр ReFrames формата : 9 кадров
Идентификатор кодека : V_MPEG4/ISO/AVC
Продолжительность : 1 ч. 33 м.
Битрейт : 4500 Кбит/сек
Ширина : 928 пикселей
Высота : 572 пикселя
Соотношение сторон : 16:10
Режим частоты кадров : Постоянный
Частота кадров : 25,000 кадров/сек
Цветовое пространство : YUV
Субдискретизация насыщенности : 4:2:0
Битовая глубина : 8 бит
Тип развёртки : Прогрессивная
Бит/(Пиксели*Кадры) : 0.339
Размер потока : 2,88 Гбайт (90%)
Библиотека кодирования : x264 core 146 r2538 121396c
Настройки программы : cabac=1 / ref=9 / deblock=1:-3:-3 / analyse=0x3:0x133 / me=umh / subme=11 / psy=1 / psy_rd=1.00:0.00 / mixed_ref=1 / me_range=32 / chroma_me=1 / trellis=2 / 8x8dct=1 / cqm=0 / deadzone=21,11 / fast_pskip=0 / chroma_qp_offset=-2 / threads=12 / lookahead_threads=2 / sliced_threads=0 / nr=0 / decimate=0 / interlaced=0 / bluray_compat=0 / constrained_intra=0 / bframes=8 / b_pyramid=2 / b_adapt=2 / b_bias=0 / direct=3 / weightb=1 / open_gop=0 / weightp=2 / keyint=250 / keyint_min=25 / scenecut=40 / intra_refresh=0 / rc=2pass / mbtree=0 / bitrate=4500 / ratetol=1.0 / qcomp=0.60 / qpmin=0 / qpmax=69 / qpstep=4 / cplxblur=20.0 / qblur=0.5 / ip_ratio=1.40 / pb_ratio=1.30 / aq=1:0.80
Язык : French
Default : Нет
Forced : Нет

Аудио #1
Идентификатор : 2
Формат : AC-3
Формат/Информация : Audio Coding 3
Расширение режима : CM (complete main)
Параметр Endianness формата : Big
Идентификатор кодека : A_AC3
Продолжительность : 1 ч. 33 м.
Вид битрейта : Постоянный
Битрейт : 192 Кбит/сек
Каналы : 2 канала
Расположение каналов : Front: L R
Частота : 48,0 КГц
Метод сжатия : С потерями
Размер потока : 129 Мбайт (4%)
Заголовок : MVO R5 Cinema Prestige
Язык : Russian
Default : Нет
Forced : Нет

Аудио #2
Идентификатор : 3
Формат : AC-3
Формат/Информация : Audio Coding 3
Расширение режима : CM (complete main)
Параметр Endianness формата : Big
Идентификатор кодека : A_AC3
Продолжительность : 1 ч. 33 м.
Вид битрейта : Постоянный
Битрейт : 192 Кбит/сек
Каналы : 2 канала
Расположение каналов : Front: L R
Частота : 48,0 КГц
Метод сжатия : С потерями
Размер потока : 129 Мбайт (4%)
Язык : French
Default : Нет
Forced : Нет

Текст
Идентификатор : 4
Формат : VobSub
Режим смешивания : zlib
Идентификатор кодека : S_VOBSUB
Идентификатор кодека/Информация : Picture based subtitle format used on DVDs
Язык : Russian
Default : Нет
Forced : Нет

---------------------------------------------------------------------------
x264 [info]: frame I:744 Avg QP:17.19 size: 76787
x264 [info]: frame P:27431 Avg QP:19.67 size: 38539
x264 [info]: frame B:102891 Avg QP:22.06 size: 17828
x264 [info]: consecutive B-frames: 1.2% 2.6% 6.1% 18.8% 17.2% 48.3% 4.4% 0.9% 0.4% 0.1% 0.1%

Общее
Уникальный идентификатор : 215563865864714270730093101693867497377 (0xA22C1725BE610B0EB41714BDB8DD97A1)
Полное имя : Мавзолей для шлюхи 2 (Mausolée pour une garce) 2001 DVDRip.mkv
Формат : Matroska
Версия формата : Version 2
Размер файла : 2,98 Гбайт
Продолжительность : 1 ч. 27 м.
Общий поток : 4887 Кбит/сек
Дата кодирования : UTC 2016-01-25 02:40:52
Программа кодирования : mkvmerge v4.0.0 ('The Stars were mine') сборка от Jun 6 2010 16:18:42
Библиотека кодирования : libebml v1.0.0 + libmatroska v1.0.0

Видео
Идентификатор : 1
Формат : AVC
Формат/Информация : Advanced Video Codec
Профиль формата : High@L4.1
Параметр CABAC формата : Да
Параметр ReFrames формата : 9 кадров
Идентификатор кодека : V_MPEG4/ISO/AVC
Продолжительность : 1 ч. 27 м.
Битрейт : 4500 Кбит/сек
Ширина : 928 пикселей
Высота : 572 пикселя
Соотношение сторон : 16:10
Режим частоты кадров : Постоянный
Частота кадров : 25,000 кадров/сек
Цветовое пространство : YUV
Субдискретизация насыщенности : 4:2:0
Битовая глубина : 8 бит
Тип развёртки : Прогрессивная
Бит/(Пиксели*Кадры) : 0.339
Размер потока : 2,69 Гбайт (90%)
Библиотека кодирования : x264 core 146 r2538 121396c
Настройки программы : cabac=1 / ref=9 / deblock=1:-3:-3 / analyse=0x3:0x133 / me=umh / subme=11 / psy=1 / psy_rd=1.00:0.00 / mixed_ref=1 / me_range=32 / chroma_me=1 / trellis=2 / 8x8dct=1 / cqm=0 / deadzone=21,11 / fast_pskip=0 / chroma_qp_offset=-2 / threads=12 / lookahead_threads=2 / sliced_threads=0 / nr=0 / decimate=0 / interlaced=0 / bluray_compat=0 / constrained_intra=0 / bframes=10 / b_pyramid=2 / b_adapt=2 / b_bias=0 / direct=3 / weightb=1 / open_gop=0 / weightp=2 / keyint=250 / keyint_min=25 / scenecut=40 / intra_refresh=0 / rc=2pass / mbtree=0 / bitrate=4500 / ratetol=1.0 / qcomp=0.60 / qpmin=0 / qpmax=69 / qpstep=4 / cplxblur=20.0 / qblur=0.5 / ip_ratio=1.40 / pb_ratio=1.30 / aq=1:0.80
Язык : French
Default : Нет
Forced : Нет

Аудио #1
Идентификатор : 2
Формат : AC-3
Формат/Информация : Audio Coding 3
Расширение режима : CM (complete main)
Параметр Endianness формата : Big
Идентификатор кодека : A_AC3
Продолжительность : 1 ч. 27 м.
Вид битрейта : Постоянный
Битрейт : 192 Кбит/сек
Каналы : 2 канала
Расположение каналов : Front: L R
Частота : 48,0 КГц
Метод сжатия : С потерями
Размер потока : 120 Мбайт (4%)
Заголовок : MVO R5 Cinema Prestige
Язык : Russian
Default : Нет
Forced : Нет

Аудио #2
Идентификатор : 3
Формат : AC-3
Формат/Информация : Audio Coding 3
Расширение режима : CM (complete main)
Параметр Endianness формата : Big
Идентификатор кодека : A_AC3
Продолжительность : 1 ч. 27 м.
Вид битрейта : Постоянный
Битрейт : 192 Кбит/сек
Каналы : 2 канала
Расположение каналов : Front: L R
Частота : 48,0 КГц
Метод сжатия : С потерями
Размер потока : 120 Мбайт (4%)
Язык : French
Default : Нет
Forced : Нет

Текст
Идентификатор : 4
Формат : VobSub
Режим смешивания : zlib
Идентификатор кодека : S_VOBSUB
Идентификатор кодека/Информация : Picture based subtitle format used on DVDs
Язык : Russian
Default : Нет
Forced : Нет


Не забывайте говорить Спасибо. Не уходите с раздачи!   
Торрент: Зарегистрирован [15 сен 2020, 08:57]
Статус:
 
.torrent скачан: 115 раз
Хэш: c16ff79cfa437ed471d30017620b537c21a1d78a
Размер: 6.18 ГБ (6 637 674 563 байт)
   Стать Автором раздачи
   
Цитата
  • Похожие торренты
    Ответы
    Просмотры
    Последнее сообщение

Вернуться в Зарубежное кино (HDRip, DVDRip)

Кто сейчас на конференции

Сейчас эту тему просматривают: нет зарегистрированных пользователей и гости: 1