Герой / Ying Xiong (2002) BDRip-AVC | P2 | Director's Cut

 Статистика раздачи 
Размер: 2.9 ГБ   |  Зарегистрирован: 14 сен 2020, 23:09   |   .torrent скачан: 99 раз
Сидеров: 5  [ 0 байт/сек ]     Личеров: 1  [ 0 байт/сек ]  
  
Аватара пользователя
Я на сайте
 
Раздал: 6.64 ТБ
Скачал: 597.93 ГБ
Ратио: 11.363
Сообщения: 272368
Стаж: 3 года 5 месяцев 29 дней
СообщениеДобавлено: 14 сен 2020, 23:09


Информация о фильме
Название: Герой
Оригинальное название: Ying Xiong
Год выхода: 2002
Жанр: фэнтези, боевик, драма, приключения
Режиссер: Чжан Имоу
В ролях: Джет Ли, Тони Люн Чу Вай, Мэгги Чун, Цзыи Чжан, Донни Йен, Чэнь Даомин, Чжунъюань Лью, Чжэн Тяньюн, Цинь Янь, Бинь Ся, Цао Хуа, Хэй Цзы, Джеймс Хонг, Ма Вэньхуа, Сюй Куанхуа, Лю Цзе, Ли Лэй, Эмиль Лин, Брюс Лок, Джин Минг, Анджела Ох, Пэн Цян, Элизабет Санг, Чанг Ксяо Янг, Ванг Шоу Синь, Чжан И, Тьелинь Чжан, Чжан Якунь

О фильме:
Китай расколот на княжества, но уже есть лидер, который хочет покорить соседей и стать императором объединенной страны. К нему засланы убийцы, безукоризненно владеющие боевыми искусствами; у них фольклорные имена Сломанный Меч, Летящий Снег и Небо.

Их противник обозначен как Безымянный, он хочет защитить императора. Его разговор с Всесильным образует раму, скрепляющую несколько ретроспектив – поединков с убийцами. Он рассказывает об этих поединках как сказку, где истину не отличишь от выдумки. Своя версия есть и у императора.



Страна: Гонконг, Китай
Студия: Beijing New Picture Film Co., China Film Co-Production Corporation
Продолжительность: 01:49:22
Перевод: Профессиональный (двухголосый закадровый) Пирамида
Субтитры: Русские (форсированные на непереведенные фрагменты), русские, китайские, английские

Файл
Формат: Matroska
Качество: BDRip-AVC | Director's Cut [Hero.2002.DC.BDRemux.1080p]
Видео: 1024x436 at 24.000 fps, x264@L4.1, ~3362 kbps, 0.314 bpp
Аудио: AC3, 6 ch, ~448 kbps - | Русский | -
Формат субтитров: softsub (SRT)

***Релиз от: -=DoMiNo=-

x264 [info]: frame I:1277 Avg QP:18.02 size: 67203
x264 [info]: frame P:36305 Avg QP:19.65 size: 31330
x264 [info]: frame B:119900 Avg QP:21.28 size: 12568
x264 [info]: consecutive B-frames: 3.7% 3.3% 7.3% 24.1% 14.6% 33.0% 5.5% 2.4% 2.2% 1.0% 0.7% 1.3% 0.3% 0.2% 0.4%

General
Format : Matroska
Format version : Version 4
File size : 2.90 GiB
Duration : 1 h 49 min
Overall bit rate : 3 797 kb/s
Movie name : Герой.(2002).BDRip-AVC.D.C.[-=DoMiNo=-] / Ying Xiong / Director's Cut
Encoded date : UTC 2020-09-14 19:48:44
Writing application : mkvmerge v50.0.0 ('Awakenings') 64-bit
Writing library : libebml v1.4.0 + libmatroska v1.6.2
Cover : Yes
Attachments : Cover.jpg / Cover 2.jpg

Video
ID : 1
Format : AVC
Format/Info : Advanced Video Codec
Format profile : High@L4.1
Format settings : CABAC / 15 Ref Frames
Format settings, CABAC : Yes
Format settings, Reference : 15 frames
Codec ID : V_MPEG4/ISO/AVC
Duration : 1 h 49 min
Bit rate : 3 362 kb/s
Width : 1 024 pixels
Height : 436 pixels
Display aspect ratio : 2.35:1
Frame rate mode : Constant
Frame rate : 24.000 FPS
Color space : YUV
Chroma subsampling : 4:2:0
Bit depth : 8 bits
Scan type : Progressive
Bits/(Pixel*Frame) : 0.314
Stream size : 2.56 GiB (88%)
Title : -=DoMiNo=-
Writing library : x264 core 161 r3018 db0d417
Encoding settings : cabac=1 / ref=15 / deblock=1:-3:-3 / analyse=0x3:0x133 / me=umh / subme=11 / psy=1 / psy_rd=1.00:0.00 / mixed_ref=1 / me_range=48 / chroma_me=1 / trellis=2 / 8x8dct=1 / cqm=0 / deadzone=21,11 / fast_pskip=0 / chroma_qp_offset=-2 / threads=6 / lookahead_threads=1 / sliced_threads=0 / nr=0 / decimate=0 / interlaced=0 / bluray_compat=0 / constrained_intra=0 / bframes=14 / b_pyramid=2 / b_adapt=2 / b_bias=0 / direct=3 / weightb=1 / open_gop=0 / weightp=2 / keyint=250 / keyint_min=24 / scenecut=40 / intra_refresh=0 / rc=2pass / mbtree=0 / bitrate=3362 / ratetol=1.0 / qcomp=0.70 / qpmin=0 / qpmax=69 / qpstep=4 / cplxblur=20.0 / qblur=0.5 / ip_ratio=1.40 / pb_ratio=1.30 / aq=3:0.80
Language : English
Default : Yes
Forced : No
Color range : Limited
Color primaries : BT.709
Transfer characteristics : BT.709
Matrix coefficients : BT.709

Audio
ID : 2
Format : AC-3
Format/Info : Audio Coding 3
Commercial name : Dolby Digital
Codec ID : A_AC3
Duration : 1 h 49 min
Bit rate mode : Constant
Bit rate : 448 kb/s
Channel(s) : 6 channels
Channel layout : L R C LFE Ls Rs
Sampling rate : 48.0 kHz
Frame rate : 31.250 FPS (1536 SPF)
Compression mode : Lossy
Stream size : 350 MiB (12%)
Title : DVO
Language : Russian
Service kind : Complete Main
Default : Yes
Forced : No

Text #1
ID : 3
Format : UTF-8
Codec ID : S_TEXT/UTF8
Codec ID/Info : UTF-8 Plain Text
Duration : 1 h 43 min
Bit rate : 2 b/s
Count of elements : 32
Stream size : 2.05 KiB (0%)
Title : forced
Language : Russian
Default : Yes
Forced : No

Text #2
ID : 4
Format : UTF-8
Codec ID : S_TEXT/UTF8
Codec ID/Info : UTF-8 Plain Text
Duration : 1 h 43 min
Bit rate : 50 b/s
Count of elements : 619
Stream size : 37.9 KiB (0%)
Language : Russian
Default : No
Forced : No

Text #3
ID : 5
Format : UTF-8
Codec ID : S_TEXT/UTF8
Codec ID/Info : UTF-8 Plain Text
Duration : 1 h 43 min
Bit rate : 19 b/s
Count of elements : 825
Stream size : 14.4 KiB (0%)
Language : Chinese
Default : No
Forced : No

Text #4
ID : 6
Format : UTF-8
Codec ID : S_TEXT/UTF8
Codec ID/Info : UTF-8 Plain Text
Duration : 1 h 40 min
Bit rate : 24 b/s
Count of elements : 660
Stream size : 17.9 KiB (0%)
Language : English
Default : No
Forced : No

Menu
00:00:00.000 : en:Chapter 01
00:07:33.666 : en:Chapter 02
00:15:56.708 : en:Chapter 03
00:28:55.666 : en:Chapter 04
00:37:46.500 : en:Chapter 05
00:46:45.958 : en:Chapter 06
00:54:33.916 : en:Chapter 07
01:04:24.708 : en:Chapter 08
01:12:19.375 : en:Chapter 09
01:21:34.583 : en:Chapter 10
01:29:06.375 : en:Chapter 11
01:39:19.458 : en:Chapter 12
Не забывайте говорить Спасибо. Не уходите с раздачи!   
Торрент: Зарегистрирован [14 сен 2020, 23:09]
Статус:
 
.torrent скачан: 99 раз
Хэш: 12eb1090071bef1dd05107999d0bed367689bb37
Размер: 2.9 ГБ (3 114 565 293 байт)
   Стать Автором раздачи
   
Цитата
  • Похожие торренты
    Ответы
    Просмотры
    Последнее сообщение

Вернуться в Зарубежное кино (HDRip, DVDRip)

Кто сейчас на конференции

Сейчас эту тему просматривают: нет зарегистрированных пользователей и гости: 1