Форсаж. Диабло / Diablo (2019) BDRip 720p от ExKinoRay | D

 Статистика раздачи 
Размер: 4.41 ГБ   |  Зарегистрирован: 15 сен 2020, 06:31   |   .torrent скачан: 478 раз
Сидеров: 30  [ 0 байт/сек ]     Личеров: 5  [ 0 байт/сек ]  
  
Аватара пользователя
Я на сайте
 
Раздал: 6.64 ТБ
Скачал: 597.93 ГБ
Ратио: 11.363
Сообщения: 272368
Стаж: 3 года 5 месяцев 29 дней

Название: Форсаж. Диабло
Оригинальное название: Diablo
Год выхода: 2019
Жанр: Боевик, комедия
Режиссер: Даниэль Маркович, Михал Отловски
В ролях: Томаш Влосок, Каролина Шимчак, Цезарий Пазура, Миколай Рознерский, Рафаль Мор, Катажина Фигура, Агнешка Влодарчик, Яцек Белер, Марчин Розальский, Войцех Бочановский
Описание: Его зовут Куба, и он - способный гонщик, у которого есть благородная цель: заработать денег на операцию младшей сестренки. Он пытается попасть в автобанду местного крутого заправилы, чтобы стать участником секретной гонки. Ставки высоки: победитель получает крупную сумму кэша, а проигравший может погибнуть. В самый разгар подготовки к заездам внимание Кубы привлекает эффектная красавица Ева с крутым нравом. К сожалению, она дочь организатора гонки - коварного мафиози.



Страна: Польша
Студия: Lightcraft
Продолжительность: 01:35:28
Перевод: Дублированный

Формат: MKV
Качество: BDRip 720p
Видео: MPEG-4 AVC, 1280x536 (2.40:1), 23.976 fps, 5602 Kbps, 0.341 bit/pixel
Аудио #01: 48 kHz, AC3, 5.1, 384 Kbps | MVO | RUS |
Аудио #02: 48 kHz, AC3, 5.1, 640 Kbps | Оригинал | POL
General
Unique ID : 183604935694110813076991458402232203576 (0x8A21063C652DD67C985F9EB384707938)
Complete name : F:Diablo.2019.BDRip.720p.ExKinoRay.mkv
Format : Matroska
Format version : Version 2
File size : 4.41 GiB
Duration : 1 h 35 min
Overall bit rate : 6 607 kb/s
Movie name : Diablo (2019) from ExKinoRay
Encoded date : UTC 2020-09-15 02:37:53
Writing application : mkvmerge v5.6.0 ('Kenya Kane') built on May 27 2012 16:44:04
Writing library : libebml v1.2.3 + libmatroska v1.3.0
Attachments : front.jpg

Video
ID : 1
Format : AVC
Format/Info : Advanced Video Codec
Format profile : High@L4.1
Format settings, CABAC : Yes
Format settings, ReFrames : 12 frames
Codec ID : V_MPEG4/ISO/AVC
Duration : 1 h 35 min
Bit rate : 5 602 kb/s
Width : 1 280 pixels
Height : 536 pixels
Display aspect ratio : 2.40:1
Frame rate mode : Constant
Frame rate : 23.976 (24000/1001) FPS
Color space : YUV
Chroma subsampling : 4:2:0
Bit depth : 8 bits
Scan type : Progressive
Bits/(Pixel*Frame) : 0.341
Stream size : 3.64 GiB (83%)
Title : Enigma
Writing library : x264 core 152 r2851 ba24899
Encoding settings : cabac=1 / ref=12 / deblock=1:-2:-2 / analyse=0x3:0x113 / me=umh / subme=10 / psy=1 / psy_rd=0.98:0.05 / mixed_ref=1 / me_range=32 / chroma_me=1 / trellis=2 / 8x8dct=1 / cqm=0 / deadzone=21,11 / fast_pskip=0 / chroma_qp_offset=-3 / threads=12 / lookahead_threads=3 / sliced_threads=0 / nr=0 / decimate=0 / interlaced=0 / bluray_compat=0 / constrained_intra=0 / bframes=10 / b_pyramid=2 / b_adapt=2 / b_bias=0 / direct=3 / weightb=1 / open_gop=0 / weightp=2 / keyint=240 / keyint_min=23 / scenecut=40 / intra_refresh=0 / rc=2pass / mbtree=0 / bitrate=5602 / ratetol=1.0 / qcomp=0.60 / qpmin=0 / qpmax=51 / qpstep=4 / cplxblur=20.0 / qblur=0.5 / ip_ratio=1.30 / pb_ratio=1.20 / aq=2:0.90
Language : English
Default : Yes
Forced : No
Color range : Limited
Color primaries : BT.709
Transfer characteristics : BT.709
Matrix coefficients : BT.709

Audio #1
ID : 2
Format : AC-3
Format/Info : Audio Coding 3
Mode extension : CM (complete main)
Format settings, Endianness : Big
Codec ID : A_AC3
Duration : 1 h 35 min
Bit rate mode : Constant
Bit rate : 384 kb/s
Channel(s) : 6 channels
Channel positions : Front: L C R, Side: L R, LFE
Sampling rate : 48.0 kHz
Frame rate : 31.250 FPS (1536 spf)
Compression mode : Lossy
Stream size : 262 MiB (6%)
Title : Dub
Language : Russian
Default : Yes
Forced : No

Audio #2
ID : 3
Format : AC-3
Format/Info : Audio Coding 3
Mode extension : CM (complete main)
Format settings, Endianness : Big
Codec ID : A_AC3
Duration : 1 h 35 min
Bit rate mode : Constant
Bit rate : 640 kb/s
Channel(s) : 6 channels
Channel positions : Front: L C R, Side: L R, LFE
Sampling rate : 48.0 kHz
Frame rate : 31.250 FPS (1536 spf)
Compression mode : Lossy
Stream size : 437 MiB (10%)
Language : Polish
Default : No
Forced : No

Text
ID : 4
Format : UTF-8
Codec ID : S_TEXT/UTF8
Codec ID/Info : UTF-8 Plain Text
Language : English
Default : No
Forced : No

Menu
00:00:00.000 : :Chapter 01
00:05:55.521 : :Chapter 02
00:09:45.876 : :Chapter 03
00:15:02.026 : :Chapter 04
00:21:01.718 : :Chapter 05
00:28:29.791 : :Chapter 06
00:33:57.827 : :Chapter 07
00:45:41.363 : :Chapter 08
00:53:53.688 : :Chapter 09
00:59:44.038 : :Chapter 10
01:06:47.086 : :Chapter 11
01:12:07.656 : :Chapter 12
01:15:53.215 : :Chapter 13
01:19:08.160 : :Chapter 14
01:26:20.425 : :Chapter 15
01:30:34.971 : :Chapter 16
01:35:27.930 : :Chapter 17



Релиз от:

Автор релиза:
Не забывайте говорить Спасибо. Не уходите с раздачи!   
Торрент: Зарегистрирован [15 сен 2020, 06:31]
Статус:
 
.torrent скачан: 478 раз
Хэш: 0192f9271e8a0eab50f599a94b725f71bd74bc75
Размер: 4.41 ГБ (4 730 612 058 байт)
   Стать Автором раздачи
   
Цитата

Вернуться в Зарубежное кино (HD Video)

Кто сейчас на конференции

Сейчас эту тему просматривают: нет зарегистрированных пользователей и гости: 1