Максимальный риск / Maximum Risk (1996) BDRip-HEVC 1080p | D, А

 Статистика раздачи 
Размер: 6.71 ГБ   |  Зарегистрирован: 15 сен 2020, 12:15   |   .torrent скачан: 221 раз
Сидеров: 17  [ 0 байт/сек ]     Личеров: 3  [ 0 байт/сек ]  
  
Аватара пользователя
Я на сайте
 
Раздал: 6.64 ТБ
Скачал: 597.93 ГБ
Ратио: 11.363
Сообщения: 272368
Стаж: 3 года 5 месяцев 29 дней

Год выхода: 1996
Страна: США
Студия: Columbia Pictures Corporation, Moshe Diamant Production, Roger Birnbaum Productions
Жанр: боевик, триллер, мелодрама, криминал, детектив
Продолжительность: 01:40:35
Перевод: Профессиональный (дублированный), авторские (одноголосые закадровые)

Режиссер: Ринго Лам
В ролях: Жан-Клод Ван Дамм, Наташа Хенстридж, Жан-Юг Англад, Зэк Гренье, Пол Бен-Виктор, Фрэнк Сенгер, Стефанос Мильцакакис, Стефан Одран

Описание: Французский полицейский Ален Моро узнаёт о том, что один из погибших в перестрелке бандитов по имени Михаил очень похож на него. И это мягко сказано: на самом деле у них просто одно лицо. Мать Алена неожиданно признаётся в том, что Михаил — это его брат-близнец, оставленный в роддоме по настоянию семьи. Полицейский решает узнать о погибшем брате как можно больше. Он отправляется в Нью-Йорк. И чем ближе он к цели, тем меньше шансов выжить...



Качество: BDRip-HEVC 1080p
Видео: HEVC/x.265, 1920x800, ~7372 Kbps
Аудио 1: AC3, 6 ch, 640 Kbps - Русский, дублированный (Blu-ray CEE)
Аудио 2: AC3, 6 ch, 448 Kbps - Русский, AVO (Андрей Гаврилов)
Аудио 3: AC3, 6 ch, 448 Kbps - Русский, AVO (Юрий Живов)
Аудио 4: AC3, 6 ch, 640 Kbps - Английский
Субтитры: Русские, английские

General
Unique ID : 44543164678903191712970618112239191236 (0x2182B3935C318745769D74DACF13C4C4)
Complete name : D:Maximum Risk (1996) (1080p BDRip x265 10bit [TAoE].mkv
Format : Matroska
Format version : Version 4
File size : 6.71 GiB
Duration : 1 h 40 min
Overall bit rate : 9 551 kb/s
Encoded date : UTC 2020-09-12 10:00:00
Writing application : mkvmerge v47.0.0 ('Black Flag') 64-bit
Writing library : libebml v1.3.10 + libmatroska v1.5.2
Cover : Yes
Attachments : cover.jpg

Video
ID : 1
Format : HEVC
Format/Info : High Efficiency Video Coding
Format profile : Main 10@L4@Main
Codec ID : V_MPEGH/ISO/HEVC
Duration : 1 h 40 min
Bit rate : 7 372 kb/s
Width : 1 920 pixels
Height : 800 pixels
Display aspect ratio : 2.40:1
Frame rate mode : Constant
Frame rate : 23.976 (24000/1001) FPS
Color space : YUV
Chroma subsampling : 4:2:0
Bit depth : 10 bits
Bits/(Pixel*Frame) : 0.200
Stream size : 5.18 GiB (77%)
Title : Encoded by r0b0t for TAoE using Shinguru V2.0
Writing library : x265 3.4+2-73ca1d7be377:[Windows][GCC 10.2.1][64 bit] 10bit
Encoding settings : cpuid=1111039 / frame-threads=4 / numa-pools=16 / wpp / no-pmode / no-pme / no-psnr / no-ssim / log-level=2 / input-csp=1 / input-res=1920x800 / interlace=0 / total-frames=0 / level-idc=0 / high-tier=1 / uhd-bd=0 / ref=4 / no-allow-non-conformance / no-repeat-headers / annexb / no-aud / no-hrd / info / hash=0 / no-temporal-layers / open-gop / min-keyint=23 / keyint=250 / gop-lookahead=0 / bframes=8 / b-adapt=2 / b-pyramid / bframe-bias=0 / rc-lookahead=80 / lookahead-slices=4 / scenecut=40 / hist-scenecut=0 / radl=0 / no-splice / no-intra-refresh / ctu=64 / min-cu-size=8 / no-rect / no-amp / max-tu-size=32 / tu-inter-depth=1 / tu-intra-depth=1 / limit-tu=0 / rdoq-level=2 / dynamic-rd=0.00 / no-ssim-rd / signhide / no-tskip / nr-intra=0 / nr-inter=0 / no-constrained-intra / no-strong-intra-smoothing / max-merge=3 / limit-refs=3 / limit-modes / me=3 / subme=5 / merange=57 / temporal-mvp / no-frame-dup / no-hme / weightp / no-weightb / no-analyze-src-pics / deblock=0:0 / sao / no-sao-non-deblock / rd=4 / selective-sao=4 / no-early-skip / rskip / no-fast-intra / no-tskip-fast / no-cu-lossless / no-b-intra / no-splitrd-skip / rdpenalty=0 / psy-rd=1.30 / psy-rdoq=2.00 / no-rd-refine / no-lossless / cbqpoffs=0 / crqpoffs=0 / rc=crf / crf=18.0 / qcomp=0.60 / qpstep=4 / stats-write=0 / stats-read=0 / ipratio=1.40 / pbratio=1.30 / aq-mode=4 / aq-strength=1.10 / cutree / zone-count=0 / no-strict-cbr / qg-size=32 / no-rc-grain / qpmax=69 / qpmin=0 / no-const-vbv / sar=1 / overscan=0 / videoformat=5 / range=0 / colorprim=2 / transfer=2 / colormatrix=2 / chromaloc=0 / display-window=0 / cll=0,0 / min-luma=0 / max-luma=1023 / log2-max-poc-lsb=8 / vui-timing-info / vui-hrd-info / slices=1 / no-opt-qp-pps / no-opt-ref-list-length-pps / no-multi-pass-opt-rps / scenecut-bias=0.05 / hist-threshold=0.01 / no-opt-cu-delta-qp / no-aq-motion / no-hdr10 / no-hdr10-opt / no-dhdr10-opt / no-idr-recovery-sei / analysis-reuse-level=0 / analysis-save-reuse-level=0 / analysis-load-reuse-level=0 / scale-factor=0 / refine-intra=0 / refine-inter=0 / refine-mv=1 / refine-ctu-distortion=0 / no-limit-sao / ctu-info=0 / no-lowpass-dct / refine-analysis-type=0 / copy-pic=1 / max-ausize-factor=1.0 / no-dynamic-refine / no-single-sei / no-hevc-aq / no-svt / no-field / qp-adaptation-range=1.00 / no-scenecut-aware-qpconformance-window-offsets / right=0 / bottom=0 / decoder-max-rate=0
Default : Yes
Forced : No
Color range : Limited

Audio #1
ID : 2
Format : AC-3
Format/Info : Audio Coding 3
Commercial name : Dolby Digital
Codec ID : A_AC3
Duration : 1 h 40 min
Bit rate mode : Constant
Bit rate : 640 kb/s
Channel(s) : 6 channels
Channel layout : L R C LFE Ls Rs
Sampling rate : 48.0 kHz
Frame rate : 31.250 FPS (1536 SPF)
Compression mode : Lossy
Stream size : 460 MiB (7%)
Title : DUB, Blu-ray CEE
Language : Russian
Service kind : Complete Main
Default : Yes
Forced : No

Audio #2
ID : 3
Format : AC-3
Format/Info : Audio Coding 3
Commercial name : Dolby Digital
Codec ID : A_AC3
Duration : 1 h 40 min
Bit rate mode : Constant
Bit rate : 448 kb/s
Channel(s) : 6 channels
Channel layout : L R C LFE Ls Rs
Sampling rate : 48.0 kHz
Frame rate : 31.250 FPS (1536 SPF)
Compression mode : Lossy
Stream size : 322 MiB (5%)
Title : Андрей Гаврилов
Language : Russian
Service kind : Complete Main
Default : No
Forced : No

Audio #3
ID : 4
Format : AC-3
Format/Info : Audio Coding 3
Commercial name : Dolby Digital
Codec ID : A_AC3
Duration : 1 h 40 min
Bit rate mode : Constant
Bit rate : 448 kb/s
Channel(s) : 6 channels
Channel layout : L R C LFE Ls Rs
Sampling rate : 48.0 kHz
Frame rate : 31.250 FPS (1536 SPF)
Compression mode : Lossy
Stream size : 322 MiB (5%)
Title : Юрий Живов
Language : Russian
Service kind : Complete Main
Default : No
Forced : No

Audio #4
ID : 5
Format : AC-3
Format/Info : Audio Coding 3
Commercial name : Dolby Digital
Codec ID : A_AC3
Duration : 1 h 40 min
Bit rate mode : Constant
Bit rate : 640 kb/s
Channel(s) : 6 channels
Channel layout : L R C LFE Ls Rs
Sampling rate : 48.0 kHz
Frame rate : 31.250 FPS (1536 SPF)
Compression mode : Lossy
Stream size : 460 MiB (7%)
Title : original
Language : English
Service kind : Complete Main
Default : No
Forced : No

Text #1
ID : 6
Format : UTF-8
Codec ID : S_TEXT/UTF8
Codec ID/Info : UTF-8 Plain Text
Duration : 1 h 35 min
Bit rate : 45 b/s
Count of elements : 692
Stream size : 31.5 KiB (0%)
Title : русские, Vinalord
Language : Russian
Default : No
Forced : No

Text #2
ID : 7
Format : UTF-8
Codec ID : S_TEXT/UTF8
Codec ID/Info : UTF-8 Plain Text
Duration : 1 h 31 min
Bit rate : 27 b/s
Count of elements : 492
Stream size : 18.7 KiB (0%)
Title : английские
Language : English
Default : No
Forced : No

Menu
00:00:00.000 : :Chapter 01
00:08:53.657 : :Chapter 02
00:12:40.592 : :Chapter 03
00:20:04.243 : :Chapter 04
00:26:00.349 : :Chapter 05
00:32:07.049 : :Chapter 06
00:35:44.266 : :Chapter 07
00:43:14.425 : :Chapter 08
00:50:43.623 : :Chapter 09
00:57:10.552 : :Chapter 10
01:04:18.271 : :Chapter 11
01:09:21.407 : :Chapter 12
01:12:14.662 : :Chapter 13
01:18:02.010 : :Chapter 14
01:21:30.176 : :Chapter 15
01:29:23.149 : :Chapter 16

Не забывайте говорить Спасибо. Не уходите с раздачи!   
Торрент: Зарегистрирован [15 сен 2020, 12:15]
Статус:
 
.torrent скачан: 221 раз
Хэш: 0b1948994a8e5268bc73c1dce8049f1b9590a4ea
Размер: 6.71 ГБ (7 205 441 571 байт)
   Стать Автором раздачи
   
Цитата
  • Похожие торренты
    Ответы
    Просмотры
    Последнее сообщение

Вернуться в Зарубежное кино (HD Video)

Кто сейчас на конференции

Сейчас эту тему просматривают: нет зарегистрированных пользователей и гости: 1