Большой переполох в маленьком Китае / Big Trouble in Little China (1986) BDRip-HEVC 1080p от KORSAR | D, P, P2, A

 Статистика раздачи 
Размер: 11.67 ГБ   |  Зарегистрирован: 14 сен 2020, 20:58   |   .torrent скачан: 270 раз
Сидеров: 61  [ 0 байт/сек ]     Личеров: 13  [ 0 байт/сек ]  
  
Аватара пользователя
Я на сайте
 
Раздал: 6.64 ТБ
Скачал: 597.93 ГБ
Ратио: 11.363
Сообщения: 272368
Стаж: 3 года 5 месяцев 28 дней

Информация о фильме
Название: Большой переполох в маленьком Китае
Оригинальное название: Big Trouble in Little China
Год выхода: 1986
Жанр: Ужасы, фэнтези, боевик, комедия, приключения
Режиссер: Джон Карпентер
В ролях: Курт Рассел, Ким Кэтролл, Деннис Дун, Джеймс Хонг, Виктор Вонг, Кейт Бертон, Дональд Ли, Картер Вон, Питер Квон, Джеймс Пакс, Suzee Pai, Чао Ли Чи, Джефф Имада, Раммел Мор, Крэйг ЭнДжи, Джун Киото Лу, Ноэль Той, Джерри Хардин, Джеймс Лью, Джим Лау, Кенни Эндосо

О фильме:
Крутой водитель грузовика по уши влипает в самую гущу интриг и приключений в "китайском квартале" Сан-Франциско, когда прямо на его глазах похищают невесту его друга. Снят фильм в духе Индианы Джонса, Расселл дает жизни направо и налево, так что любители этого жанра получат огромное удовольствие.



Страна: США
Студия: 20th Century Fox Film Corporation, TAFT Entertainment Pictures
Продолжительность: 01:39:49
Перевод: Дублированный, профессиональный (многоголосый, двухголосый), авторский одноголосый

Файл
Качество: BDRip-HEVC 1080p
Формат: MKV
Видео: HEVC, 1920x812, 12 Мбит/с, 23.976 кадр/с, 10 бит
Звук:
Аудио1: Русская, AC3 448 Кбит/с, 6 канала(ов) Дубляж (BD EUR)
Аудио2: Русская, AC3 448 Кбит/с, 6 канала(ов) MVO (FDV/Киномания)
Аудио3: Русская, AC3 448 Кбит/с, 6 канала(ов) MVO (НТВ/ОРТ)
Аудио4: Русская, AC3 192 Кбит/с, 2 канала(ов) DVO (Премьер Видео)
Аудио5: Русская, AC3 640 Кбит/с, 6 канала(ов) AVO (Михалев)
Аудио6: Русская, AC3 448 Кбит/с, 6 канала(ов) AVO (Котов)
Аудио7: Русская, AC3 448 Кбит/с, 6 канала(ов) AVO (Володарский)
Аудио8: Русская, AC3 224 Кбит/с, 2 канала(ов) AVO (Белов)
Аудио9: Русская, AC3 192 Кбит/с, 2 канала(ов) AVO (Гаврилов)
Аудио10: Русская, AC3 192 Кбит/с, 2 канала(ов) AVO (Горчаков)
Аудио11: Русская, AC3 192 Кбит/с, 2 канала(ов) AVO (Товбин)
Аудио12: Украинская, AC3 192 Кбит/с, 1 канала(ов) MVO (1+1)
Аудио13: English, AC3 640 Кбит/с, 6 канала(ов) Original
Субтитры: Русские, английские
Навигация по главам: Есть

x265 [info]: frame I: 1737, Avg QP:19.41 kb/s: 37121.46
x265 [info]: frame P: 24773, Avg QP:20.47 kb/s: 25499.75
x265 [info]: frame B: 117102, Avg QP:21.77 kb/s: 8812.39
x265 [info]: consecutive B-frames: 9.6% 0.9% 1.3% 6.7% 6.5% 66.4% 4.6% 2.2% 0.6% 0.6% 0.4%

General
Unique ID : 1924745193499502401573739632300519849 (0x172B143C5476A078631FD8B9D39F1A9)
Complete name : S:HEVC2Большой переполох в маленьком Китае (1986) BDRip-HEVC 1080p_KORSAR.mkv
Format : Matroska
Format version : Version 4 / Version 2
File size : 11.7 GiB
Duration : 1 h 39 min
Overall bit rate : 16.7 Mb/s
Movie name : Big Trouble In Little China (1986)_rip_by_Cthulhu_KORSAR
Encoded date : UTC 2020-09-07 17:24:07
Writing application : mkvmerge v46.0.0 ('No Deeper Escape') 64-bit
Writing library : libebml v1.3.10 + libmatroska v1.5.2
Cover : Yes
Attachments : cover16.jpg

Video
ID : 1
Format : HEVC
Format/Info : High Efficiency Video Coding
Format profile : Main 10@L4.1@High
Codec ID : V_MPEGH/ISO/HEVC
Duration : 1 h 39 min
Bit rate : 12.0 Mb/s
Width : 1 920 pixels
Height : 812 pixels
Display aspect ratio : 2.35:1
Frame rate mode : Constant
Frame rate : 23.976 (24000/1001) FPS
Color space : YUV
Chroma subsampling : 4:2:0
Bit depth : 10 bits
Bits/(Pixel*Frame) : 0.322
Stream size : 8.39 GiB (72%)
Writing library : x265 3.3+2-gbe2d82093:[Windows][GCC 10.0.1][64 bit] 10bit
Encoding settings : cpuid=1111039 / frame-threads=4 / numa-pools=16 / wpp / no-pmode / no-pme / no-psnr / no-ssim / log-level=2 / input-csp=1 / input-res=1920x812 / interlace=0 / total-frames=143612 / level-idc=41 / high-tier=1 / uhd-bd=0 / ref=5 / no-allow-non-conformance / no-repeat-headers / annexb / no-aud / no-hrd / info / hash=0 / no-temporal-layers / open-gop / min-keyint=23 / keyint=240 / gop-lookahead=0 / bframes=10 / b-adapt=2 / b-pyramid / bframe-bias=0 / rc-lookahead=60 / lookahead-slices=1 / scenecut=40 / hist-scenecut=0 / radl=0 / no-splice / no-intra-refresh / ctu=32 / min-cu-size=8 / rect / amp / max-tu-size=32 / tu-inter-depth=4 / tu-intra-depth=4 / limit-tu=1 / rdoq-level=2 / dynamic-rd=0.00 / no-ssim-rd / signhide / no-tskip / nr-intra=0 / nr-inter=0 / no-constrained-intra / no-strong-intra-smoothing / max-merge=5 / limit-refs=3 / limit-modes / me=3 / subme=7 / merange=57 / temporal-mvp / no-frame-dup / hme / Level / merange / L0,L1,L2=16,32,57 / weightp / weightb / no-analyze-src-pics / deblock=-3:-2 / no-sao / no-sao-non-deblock / rd=6 / selective-sao=0 / no-early-skip / rskip / rskip-edge-threshold=0.050000 / no-fast-intra / no-tskip-fast / no-cu-lossless / b-intra / no-splitrd-skip / rdpenalty=0 / psy-rd=1.00 / psy-rdoq=0.50 / no-rd-refine / no-lossless / cbqpoffs=0 / crqpoffs=0 / rc=crf / crf=20.5 / qcomp=0.68 / qpstep=4 / stats-write=0 / stats-read=0 / vbv-maxrate=50000 / vbv-bufsize=50000 / vbv-init=0.9 / crf-max=0.0 / crf-min=0.0 / ipratio=1.40 / pbratio=1.30 / aq-mode=1 / aq-strength=1.00 / no-cutree / zone-count=0 / no-strict-cbr / qg-size=32 / no-rc-grain / qpmax=69 / qpmin=0 / no-const-vbv / sar=1 / overscan=0 / videoformat=5 / range=0 / colorprim=1 / transfer=1 / colormatrix=1 / chromaloc=0 / display-window=0 / cll=0,0 / min-luma=0 / max-luma=1023 / log2-max-poc-lsb=8 / vui-timing-info / vui-hrd-info / slices=1 / no-opt-qp-pps / no-opt-ref-list-length-pps / no-multi-pass-opt-rps / scenecut-bias=0.05 / hist-threshold=0.01 / no-opt-cu-delta-qp / no-aq-motion / no-hdr10 / no-hdr10-opt / no-dhdr10-opt / no-idr-recovery-sei / analysis-reuse-level=0 / analysis-save-reuse-level=0 / analysis-load-reuse-level=0 / scale-factor=0 / refine-intra=0 / refine-inter=0 / refine-mv=1 / refine-ctu-distortion=0 / no-limit-sao / ctu-info=0 / no-lowpass-dct / refine-analysis-type=0 / copy-pic=1 / max-ausize-factor=1.0 / no-dynamic-refine / no-single-sei / no-hevc-aq / no-svt / no-field / qp-adaptation-range=1.00 / no-scenecut-aware-qpconformance-window-offsets / right=0 / bottom=0
Language : English
Default : Yes
Forced : No
Color range : Limited
Color primaries : BT.709
Transfer characteristics : BT.709
Matrix coefficients : BT.709

Audio #1
ID : 2
Format : AC-3
Format/Info : Audio Coding 3
Commercial name : Dolby Digital
Codec ID : A_AC3
Duration : 1 h 39 min
Bit rate mode : Constant
Bit rate : 448 kb/s
Channel(s) : 6 channels
Channel layout : L R C LFE Ls Rs
Sampling rate : 48.0 kHz
Frame rate : 31.250 FPS (1536 SPF)
Bit depth : 16 bits
Compression mode : Lossy
Stream size : 320 MiB (3%)
Title : Дубляж (BD EUR)
Language : Russian
Service kind : Complete Main
Default : Yes
Forced : No

Audio #2
ID : 3
Format : AC-3
Format/Info : Audio Coding 3
Commercial name : Dolby Digital
Codec ID : A_AC3
Duration : 1 h 39 min
Bit rate mode : Constant
Bit rate : 448 kb/s
Channel(s) : 6 channels
Channel layout : L R C LFE Ls Rs
Sampling rate : 48.0 kHz
Frame rate : 31.250 FPS (1536 SPF)
Bit depth : 16 bits
Compression mode : Lossy
Stream size : 320 MiB (3%)
Title : MVO (FDV/Киномания)
Language : Russian
Service kind : Complete Main
Default : No
Forced : No

Audio #3
ID : 4
Format : AC-3
Format/Info : Audio Coding 3
Commercial name : Dolby Digital
Codec ID : A_AC3
Duration : 1 h 39 min
Bit rate mode : Constant
Bit rate : 448 kb/s
Channel(s) : 6 channels
Channel layout : L R C LFE Ls Rs
Sampling rate : 48.0 kHz
Frame rate : 31.250 FPS (1536 SPF)
Bit depth : 16 bits
Compression mode : Lossy
Stream size : 320 MiB (3%)
Title : MVO (НТВ/ОРТ)
Language : Russian
Service kind : Complete Main
Default : No
Forced : No

Audio #4
ID : 5
Format : AC-3
Format/Info : Audio Coding 3
Commercial name : Dolby Digital
Codec ID : A_AC3
Duration : 1 h 39 min
Bit rate mode : Constant
Bit rate : 192 kb/s
Channel(s) : 2 channels
Channel layout : L R
Sampling rate : 48.0 kHz
Frame rate : 31.250 FPS (1536 SPF)
Bit depth : 16 bits
Compression mode : Lossy
Stream size : 137 MiB (1%)
Title : DVO (Премьер Видео)
Language : Russian
Service kind : Complete Main
Default : No
Forced : No

Audio #5
ID : 6
Format : AC-3
Format/Info : Audio Coding 3
Commercial name : Dolby Digital
Codec ID : A_AC3
Duration : 1 h 39 min
Bit rate mode : Constant
Bit rate : 640 kb/s
Channel(s) : 6 channels
Channel layout : L R C LFE Ls Rs
Sampling rate : 48.0 kHz
Frame rate : 31.250 FPS (1536 SPF)
Bit depth : 16 bits
Compression mode : Lossy
Stream size : 457 MiB (4%)
Title : AVO (Михалев)
Language : Russian
Service kind : Complete Main
Default : No
Forced : No

Audio #6
ID : 7
Format : AC-3
Format/Info : Audio Coding 3
Commercial name : Dolby Digital
Codec ID : A_AC3
Duration : 1 h 39 min
Bit rate mode : Constant
Bit rate : 448 kb/s
Channel(s) : 6 channels
Channel layout : L R C LFE Ls Rs
Sampling rate : 48.0 kHz
Frame rate : 31.250 FPS (1536 SPF)
Bit depth : 16 bits
Compression mode : Lossy
Stream size : 320 MiB (3%)
Title : AVO (Котов)
Language : Russian
Service kind : Complete Main
Default : No
Forced : No

Audio #7
ID : 8
Format : AC-3
Format/Info : Audio Coding 3
Commercial name : Dolby Digital
Codec ID : A_AC3
Duration : 1 h 39 min
Bit rate mode : Constant
Bit rate : 448 kb/s
Channel(s) : 6 channels
Channel layout : L R C LFE Ls Rs
Sampling rate : 48.0 kHz
Frame rate : 31.250 FPS (1536 SPF)
Bit depth : 16 bits
Compression mode : Lossy
Stream size : 320 MiB (3%)
Title : AVO (Володарский)
Language : Russian
Service kind : Complete Main
Default : No
Forced : No

Audio #8
ID : 9
Format : AC-3
Format/Info : Audio Coding 3
Commercial name : Dolby Digital
Codec ID : A_AC3
Duration : 1 h 39 min
Bit rate mode : Constant
Bit rate : 224 kb/s
Channel(s) : 2 channels
Channel layout : L R
Sampling rate : 48.0 kHz
Frame rate : 31.250 FPS (1536 SPF)
Bit depth : 16 bits
Compression mode : Lossy
Stream size : 160 MiB (1%)
Title : AVO (Белов)
Language : Russian
Service kind : Complete Main
Default : No
Forced : No

Audio #9
ID : 10
Format : AC-3
Format/Info : Audio Coding 3
Commercial name : Dolby Digital
Codec ID : A_AC3
Duration : 1 h 39 min
Bit rate mode : Constant
Bit rate : 192 kb/s
Channel(s) : 2 channels
Channel layout : L R
Sampling rate : 48.0 kHz
Frame rate : 31.250 FPS (1536 SPF)
Bit depth : 16 bits
Compression mode : Lossy
Stream size : 137 MiB (1%)
Title : AVO (Гаврилов)
Language : Russian
Service kind : Complete Main
Default : No
Forced : No

Audio #10
ID : 11
Format : AC-3
Format/Info : Audio Coding 3
Commercial name : Dolby Digital
Codec ID : A_AC3
Duration : 1 h 39 min
Bit rate mode : Constant
Bit rate : 192 kb/s
Channel(s) : 2 channels
Channel layout : L R
Sampling rate : 48.0 kHz
Frame rate : 31.250 FPS (1536 SPF)
Bit depth : 16 bits
Compression mode : Lossy
Stream size : 137 MiB (1%)
Title : AVO (Горчаков)
Language : Russian
Service kind : Complete Main
Default : No
Forced : No

Audio #11
ID : 12
Format : AC-3
Format/Info : Audio Coding 3
Commercial name : Dolby Digital
Codec ID : A_AC3
Duration : 1 h 39 min
Bit rate mode : Constant
Bit rate : 192 kb/s
Channel(s) : 2 channels
Channel layout : L R
Sampling rate : 48.0 kHz
Frame rate : 31.250 FPS (1536 SPF)
Bit depth : 16 bits
Compression mode : Lossy
Stream size : 137 MiB (1%)
Title : AVO (Товбин)
Language : Russian
Service kind : Complete Main
Default : No
Forced : No

Audio #12
ID : 13
Format : AC-3
Format/Info : Audio Coding 3
Commercial name : Dolby Digital
Codec ID : A_AC3
Duration : 1 h 39 min
Bit rate mode : Constant
Bit rate : 192 kb/s
Channel(s) : 1 channel
Channel layout : C
Sampling rate : 48.0 kHz
Frame rate : 31.250 FPS (1536 SPF)
Bit depth : 16 bits
Compression mode : Lossy
Stream size : 137 MiB (1%)
Title : MVO (1+1)
Language : Ukrainian
Service kind : Complete Main
Default : No
Forced : No

Audio #13
ID : 14
Format : AC-3
Format/Info : Audio Coding 3
Commercial name : Dolby Digital
Codec ID : A_AC3
Duration : 1 h 39 min
Bit rate mode : Constant
Bit rate : 640 kb/s
Channel(s) : 6 channels
Channel layout : L R C LFE Ls Rs
Sampling rate : 48.0 kHz
Frame rate : 31.250 FPS (1536 SPF)
Bit depth : 16 bits
Compression mode : Lossy
Stream size : 457 MiB (4%)
Language : English
Service kind : Complete Main
Default : No
Forced : No

Text #1
ID : 15
Format : UTF-8
Codec ID : S_TEXT/UTF8
Codec ID/Info : UTF-8 Plain Text
Duration : 1 h 39 min
Bit rate : 84 b/s
Count of elements : 1334
Stream size : 61.1 KiB (0%)
Language : Russian
Default : No
Forced : No

Text #2
ID : 16
Format : UTF-8
Codec ID : S_TEXT/UTF8
Codec ID/Info : UTF-8 Plain Text
Duration : 1 h 36 min
Bit rate : 48 b/s
Count of elements : 798
Stream size : 34.3 KiB (0%)
Language : English
Default : No
Forced : No

Menu
00:00:00.000 : :Chapter 01
00:02:32.068 : :Chapter 02
00:06:17.126 : :Chapter 03
00:08:34.096 : :Chapter 04
00:09:55.553 : :Chapter 05
00:12:43.804 : :Chapter 06
00:13:58.546 : :Chapter 07
00:15:16.498 : :Chapter 08
00:17:55.908 : :Chapter 09
00:20:18.592 : :Chapter 10
00:24:30.302 : :Chapter 11
00:28:09.479 : :Chapter 12
00:30:48.972 : :Chapter 13
00:32:45.838 : :Chapter 14
00:34:49.420 : :Chapter 15
00:36:04.412 : :Chapter 16
00:36:47.788 : :Chapter 17
00:37:42.843 : :Chapter 18
00:38:32.226 : :Chapter 19
00:40:14.120 : :Chapter 20
00:44:20.699 : :Chapter 21
00:46:12.770 : :Chapter 22
00:49:37.557 : :Chapter 23
00:51:06.605 : :Chapter 24
00:56:41.106 : :Chapter 25
00:59:49.127 : :Chapter 26
01:01:46.828 : :Chapter 27
01:03:00.359 : :Chapter 28
01:04:32.910 : :Chapter 29
01:06:09.548 : :Chapter 30
01:09:39.967 : :Chapter 31
01:11:03.592 : :Chapter 32
01:12:58.624 : :Chapter 33
01:15:53.173 : :Chapter 34
01:16:24.538 : :Chapter 35
01:18:05.389 : :Chapter 36
01:25:57.193 : :Chapter 37
01:27:19.025 : :Chapter 38
01:28:09.826 : :Chapter 39
01:29:21.689 : :Chapter 40
01:31:20.266 : :Chapter 41
01:33:04.412 : :Chapter 42
01:35:31.434 : :Chapter 43
01:36:15.227 : :Chapter 44




Релиз от: Cthulhu
Не забывайте говорить Спасибо. Не уходите с раздачи!   
Торрент: Зарегистрирован [14 сен 2020, 20:58]
Статус:
 
.torrent скачан: 270 раз
Хэш: b28e29522bf6895759240a60c0d8c6bff4708b2d
Размер: 11.67 ГБ (12 535 726 709 байт)
   Стать Автором раздачи
   
Цитата

Вернуться в Зарубежное кино (HD Video)

Кто сейчас на конференции

Сейчас эту тему просматривают: нет зарегистрированных пользователей и гости: 1