Сила стихии / Force of Nature (2020) BDRip-HEVC 1080p | D, P | iTunes

 Статистика раздачи 
Размер: 7.67 ГБ   |  Зарегистрирован: 14 сен 2020, 20:10   |   .torrent скачан: 355 раз
Сидеров: 27  [ 0 байт/сек ]     Личеров: 8  [ 0 байт/сек ]  
  
Аватара пользователя
Я на сайте
 
Раздал: 6.64 ТБ
Скачал: 597.93 ГБ
Ратио: 11.363
Сообщения: 272368
Стаж: 3 года 5 месяцев 28 дней

Год выхода: 2020
Страна / Студия: США / Emmett/Furla/Oasis Films (EFO Films), FON Film Production, Force of Nature Film
Жанр: боевик, криминал
Продолжительность: 01:31:06
Перевод: Дублированный, профессиональный (многоголосый, закадровый)

Режиссер: Майкл Полиш
В ролях: Мэл Гибсон, Эмиль Хирш, Кейт Босворт, Дэвид Зайас, Стефани Кайо, Тайлер Джон Олсон, Уильям Кэтлетт, Джаспер Полиш, Свен Теммел, Рей Эрнандес

Описание: На Пуэрто-Рико надвигается сильнейший ураган, поэтому к полицейскому Кардийо приставлена новая напарница Джесс и выдано задание эвакуировать население. Вызов на конфликт в продуктовом магазине приводит копов в почти пустой жилой дом, где обнаруживается нежелающий покидать уютное кресло бывший полицейский Рэй, а теперь - просто упрямый пенсионер. Пока Кардийо с его дочерью-врачом уговаривает эвакуироваться другого жильца, в дом проникает хорошо вооружённая банда грабителей. Настало время Джесс пройти боевое крещение, а Рэю - тряхнуть стариной.

Качество: BDRip 1080p
Видео: HEVC/H.265, 1920x804, ~10,6 Мbps
Аудио 1: AC3, 6 ch, 384 Kbps - Русский, дублированный (iTunes)
Аудио 2: AC3, 6 ch, 448 Kbps - Русский, MVO (HDRezka Studio)
Аудио 3: AC3, 6 ch, 640 Kbps - Английский
Субтитры: Русские (форсированные)



Релиз от: mikos


Общее
Уникальный идентификатор : 95881962450303425577336008207592858467 (0x482231BB162C62CB0C1D5D09FE342363)
Полное имя : R:Force of Nature 2020.BDRip.1080p.DUB.HEVC.10bit.mikos.mkv
Формат : Matroska
Версия формата : Version 4 / Version 2
Размер файла : 7,67 Гбайт
Продолжительность : 1 ч. 31 м.
Общий поток : 12,1 Мбит/сек
Название фильма : Force of Nature 2020.BDRip.1080p.DUB.HEVC.10bit.mikos
Дата кодирования : UTC 2020-09-14 12:46:16
Программа кодирования : mkvmerge v50.0.0 ('Awakenings') 64-bit
Библиотека кодирования : libebml v1.4.0 + libmatroska v1.6.2

Видео
Идентификатор : 1
Формат : HEVC
Формат/Информация : High Efficiency Video Coding
Профиль формата : Main 10@L4.1@High
Идентификатор кодека : V_MPEGH/ISO/HEVC
Продолжительность : 1 ч. 31 м.
Битрейт : 10,6 Мбит/сек
Ширина : 1920 пикселей
Высота : 804 пикселя
Соотношение сторон : 2,40:1
Режим частоты кадров : Постоянный
Частота кадров : 23,976 (24000/1001) кадра/сек
Цветовое пространство : YUV
Субдискретизация насыщенности : 4:2:0
Битовая глубина : 10 бит
Бит/(Пиксели*Кадры) : 0.286
Размер потока : 6,73 Гбайт (88%)
Заголовок : Рип от mikos
Библиотека кодирования : x265 3.4+20-g343c58ef6:[Windows][clang 10.0.1][64 bit] 10bit
Настройки программы : cpuid=1111039 / frame-threads=3 / numa-pools=12 / wpp / no-pmode / no-pme / no-psnr / no-ssim / log-level=3 / input-csp=1 / input-res=1920x804 / interlace=0 / total-frames=0 / level-idc=41 / high-tier=1 / uhd-bd=0 / ref=5 / allow-non-conformance / no-repeat-headers / annexb / no-aud / no-hrd / info / hash=0 / no-temporal-layers / open-gop / min-keyint=23 / keyint=240 / gop-lookahead=0 / bframes=14 / b-adapt=2 / b-pyramid / bframe-bias=0 / rc-lookahead=60 / lookahead-slices=5 / scenecut=40 / hist-scenecut=0 / radl=0 / no-splice / no-intra-refresh / ctu=32 / min-cu-size=8 / no-rect / no-amp / max-tu-size=32 / tu-inter-depth=1 / tu-intra-depth=1 / limit-tu=0 / rdoq-level=0 / dynamic-rd=0.00 / no-ssim-rd / signhide / no-tskip / nr-intra=0 / nr-inter=0 / no-constrained-intra / strong-intra-smoothing / max-merge=3 / limit-refs=1 / no-limit-modes / me=2 / subme=7 / merange=57 / temporal-mvp / no-frame-dup / no-hme / weightp / no-weightb / no-analyze-src-pics / deblock=-3:-2 / no-sao / no-sao-non-deblock / rd=3 / selective-sao=0 / early-skip / rskip / no-fast-intra / no-tskip-fast / no-cu-lossless / b-intra / no-splitrd-skip / rdpenalty=0 / psy-rd=2.00 / psy-rdoq=0.00 / no-rd-refine / no-lossless / cbqpoffs=0 / crqpoffs=0 / rc=crf / crf=19.2 / qcomp=0.65 / qpstep=4 / stats-write=0 / stats-read=0 / vbv-maxrate=50000 / vbv-bufsize=50000 / vbv-init=0.9 / crf-max=28.0 / crf-min=0.0 / ipratio=1.40 / pbratio=1.30 / aq-mode=1 / aq-strength=1.10 / no-cutree / zone-count=0 / no-strict-cbr / qg-size=32 / no-rc-grain / qpmax=69 / qpmin=0 / no-const-vbv / sar=1 / overscan=0 / videoformat=5 / range=0 / colorprim=2 / transfer=2 / colormatrix=2 / chromaloc=0 / display-window=0 / cll=0,0 / min-luma=0 / max-luma=1023 / log2-max-poc-lsb=8 / vui-timing-info / vui-hrd-info / slices=1 / no-opt-qp-pps / no-opt-ref-list-length-pps / no-multi-pass-opt-rps / scenecut-bias=0.05 / hist-threshold=0.03 / no-opt-cu-delta-qp / no-aq-motion / no-hdr10 / no-hdr10-opt / no-dhdr10-opt / no-idr-recovery-sei / analysis-reuse-level=0 / analysis-save-reuse-level=0 / analysis-load-reuse-level=0 / scale-factor=0 / refine-intra=0 / refine-inter=0 / refine-mv=1 / refine-ctu-distortion=0 / no-limit-sao / ctu-info=0 / no-lowpass-dct / refine-analysis-type=0 / copy-pic=1 / max-ausize-factor=1.0 / no-dynamic-refine / no-single-sei / no-hevc-aq / no-svt / no-field / qp-adaptation-range=1.00 / no-scenecut-aware-qpconformance-window-offsets / right=0 / bottom=0 / decoder-max-rate=0
Язык : English
Default : Да
Forced : Нет
Цветовой диапазон : Limited

Аудио #1
Идентификатор : 2
Формат : AC-3
Формат/Информация : Audio Coding 3
Идентификатор кодека : A_AC3
Продолжительность : 1 ч. 31 м.
Вид битрейта : Постоянный
Битрейт : 384 Кбит/сек
Каналы : 6 каналов
Расположение каналов : Front: L C R, Side: L R, LFE
Частота : 48,0 КГц
Частота кадров : 31,250 кадров/сек (1536 SPF)
Битовая глубина : 16 бит
Метод сжатия : С потерями
Размер потока : 250 Мбайт (3%)
Заголовок : Dub [iTunes]
Язык : Russian
ServiceKind/Strin : Complete Main
Default : Да
Forced : Нет

Аудио #2
Идентификатор : 3
Формат : AC-3
Формат/Информация : Audio Coding 3
Идентификатор кодека : A_AC3
Продолжительность : 1 ч. 31 м.
Вид битрейта : Постоянный
Битрейт : 448 Кбит/сек
Каналы : 6 каналов
Расположение каналов : Front: L C R, Side: L R, LFE
Частота : 48,0 КГц
Частота кадров : 31,250 кадров/сек (1536 SPF)
Битовая глубина : 16 бит
Метод сжатия : С потерями
Размер потока : 292 Мбайт (4%)
Заголовок : MVO [HDRezka Studio]
Язык : Russian
ServiceKind/Strin : Complete Main
Default : Нет
Forced : Нет

Аудио #3
Идентификатор : 4
Формат : AC-3
Формат/Информация : Audio Coding 3
Идентификатор кодека : A_AC3
Продолжительность : 1 ч. 31 м.
Вид битрейта : Постоянный
Битрейт : 640 Кбит/сек
Каналы : 6 каналов
Расположение каналов : Front: L C R, Side: L R, LFE
Частота : 48,0 КГц
Частота кадров : 31,250 кадров/сек (1536 SPF)
Битовая глубина : 16 бит
Метод сжатия : С потерями
Размер потока : 417 Мбайт (5%)
Заголовок : Original
Язык : English
ServiceKind/Strin : Complete Main
Default : Нет
Forced : Нет

Текст
Идентификатор : 5
Формат : UTF-8
Идентификатор кодека : S_TEXT/UTF8
Идентификатор кодека/Информация : UTF-8 Plain Text
Продолжительность : 1 ч. 25 м.
Битрейт : 2 бит/сек
ElementCount : 49
Размер потока : 1,68 Кбайт (0%)
Заголовок : Forced [For HDRezka Studio]
Язык : Russian
Default : Да
Forced : Нет

Меню
00:00:00.000 : :Chapter 01
00:06:31.474 : :Chapter 02
00:13:17.130 : :Chapter 03
00:16:04.672 : :Chapter 04
00:21:07.975 : :Chapter 05
00:26:09.568 : :Chapter 06
00:31:58.375 : :Chapter 07
00:37:10.395 : :Chapter 08
00:43:02.121 : :Chapter 09
00:49:38.559 : :Chapter 10
00:56:44.735 : :Chapter 11
01:00:58.905 : :Chapter 12
01:07:58.283 : :Chapter 13
01:12:43.150 : :Chapter 14
01:17:51.584 : :Chapter 15
01:24:53.255 : :Chapter 16
Не забывайте говорить Спасибо. Не уходите с раздачи!   
Торрент: Зарегистрирован [14 сен 2020, 20:10]
Статус:
 
.torrent скачан: 355 раз
Хэш: c10b8de58f893f8a0cabaf3c199760c37d8c2569
Размер: 7.67 ГБ (8 235 458 823 байт)
   Стать Автором раздачи
   
Цитата

Вернуться в Зарубежное кино (HD Video)

Кто сейчас на конференции

Сейчас эту тему просматривают: нет зарегистрированных пользователей и гости: 1