Кто Вы, Мистер Брукс? / Mr. Brooks (2007) BDRip-HEVC 1080p от HEVC-CLUB | D, A

 Статистика раздачи 
Размер: 8.24 ГБ   |  Зарегистрирован: 29 июн 2020, 08:09   |   .torrent скачан: 394 раз
Сидеров: 112  [ 0 байт/сек ]     Личеров: 50  [ 0 байт/сек ]  
  
Аватара пользователя
Я на сайте
 
Раздал: 6.64 ТБ
Скачал: 597.93 ГБ
Ратио: 11.363
Сообщения: 266884
Стаж: 3 года 3 месяца 19 дней

Информация о фильме
Название: Кто Вы, Мистер Брукс?
Оригинальное название: Mr. Brooks
Год выхода: 2007
Жанр: Триллер, драма, криминал, детектив
Режиссер: Брюс А. Эванс
В ролях: Кевин Костнер, Деми Мур, Дэйн Кук, Уильям Херт, Марж Хелгенбергер, Рубен Сантьяго-Хадсон, Даниэль Панабэйкер, Аиша Хайндс, Линдсэй Круз, Джейсон Льюис, Рейко Эйлсворт, Мэтт Шульц, Ясмин Делавари, Майкл Коул, Джим Фарнам, Меган Браун, Росс Френсис, Кит Гвин, Маркус Хестер, Джэми МакШейн, Лаура Бэйли.

О фильме:
Уважаемый бизнесмен и отец семейства, мистер Брукс скрывает тайну. За фасадом заботливого мужа и нежного отца скрывается жестокий убийца. На протяжении долгого времени эти две личности безуспешно борются между собой, и ни одна из них не может одержать верх. В результате убийства продолжаются, и, кажется, ничто не может оборвать эту кровавую цепь преступлений. Однако Бруксу не повезло. Свидетелем его последнего злодеяния становится сумасшедший фотограф. Он начинает шантажировать преступника, но у него особые требования. В отличие от обычных шантажистов, фотографа не интересуют деньги. Он хочет присутствовать при следующих убийствах. У героя остается сомнительный выбор — пойти на поводу у шантажиста или найти в себе силы победить свой порок и вернуться к нормальной жизни.


Страна: США
Студия: Metro-Goldwyn-Mayer
Продолжительность: 02:00:51
Перевод: Дублированный ,Авторский (одноголосый закадровый)

Файл
Кодек: HEVC x265 10 bit
Качество: BDRip-HEVC 1080p
Видео: 1920x1040, 7843 Кбит/сек, 0.164 бит/(Пиксели*Кадры), 23,976 кадр/сек, HEVC (Main10@L.4.1@High) 10 бит
Звук:
1. Русский, AC3, 640 Кбит/сек, 5.1, 48,0 КГц - Дубляж
2. Русский, AC3, 640 Кбит/сек, 5.1, 48,0 КГц - Авторский, Юрий Немахов
3. Английский, AC3, 640 Кбит/сек, 5.1, 48,0 КГц - Оригинал
Субтитры: Русские , английские

x265 [info]: frame I: 1404, Avg QP:17.38 kb/s: 28414.38
x265 [info]: frame P: 35322, Avg QP:18.83 kb/s: 18302.12
x265 [info]: frame B: 136937, Avg QP:21.44 kb/s: 4933.21
x265 [info]: Weighted P-Frames: Y:6.9% UV:5.5%
x265 [info]: Weighted B-Frames: Y:5.2% UV:4.0%
x265 [info]: consecutive B-frames: 5.7% 2.2% 3.9% 42.0% 6.7% 33.6% 1.8% 2.5% 0.4% 1.2%

encoded 173663 frames in 433959.45s (0.40 fps), 7842.20 kb/s, Avg QP:20.87

Формат : Matroska
Версия формата : Version 4
Размер файла : 8,24 Гбайт
Продолжительность : 2 ч. 0 м.
Общий поток : 9756 Кбит/сек
Название фильма : by Spartanec
Дата кодирования : UTC 2020-06-27 17:21:39
Программа кодирования : mkvmerge v7.0.0 ('Where We Going') 64bit built on Jun 9 2014 15:16:27
Библиотека кодирования : libebml v1.3.0 + libmatroska v1.4.1 / Lavf57.71.100
Обложка : Yes
Attachments : cover.jpg

Видео
Идентификатор : 1
Формат : HEVC
Формат/Информация : High Efficiency Video Coding
Профиль формата : Main 10@L4.1@High
Идентификатор кодека : V_MPEGH/ISO/HEVC
Продолжительность : 2 ч. 0 м.
Битрейт : 7843 Кбит/сек
Ширина : 1920 пикселей
Высота : 1040 пикселей
Соотношение сторон : 1,85:1
Режим частоты кадров : Постоянный
Частота кадров : 23,976 (23976/1000) кадра/сек
Частота кадров в оригинале : 23,976 (24000/1001) кадра/сек
Цветовое пространство : YUV
Субдискретизация насыщенности : 4:2:0
Битовая глубина : 10 бит
Бит/(Пиксели*Кадры) : 0.164
Размер потока : 6,61 Гбайт (80%)
Заголовок : Spartanec
Библиотека кодирования : x265 3.3+4-g85d84b2af:[Windows][GCC 10.1.0][64 bit] 10bit
Настройки программы : cpuid=1111039 / frame-threads=4 / numa-pools=16 / wpp / no-pmode / no-pme / no-psnr / no-ssim / log-level=2 / input-csp=1 / input-res=1920x1040 / interlace=0 / total-frames=173663 / level-idc=41 / high-tier=1 / uhd-bd=0 / ref=5 / no-allow-non-conformance / no-repeat-headers / annexb / no-aud / no-hrd / info / hash=0 / no-temporal-layers / open-gop / min-keyint=23 / keyint=240 / gop-lookahead=0 / bframes=9 / b-adapt=2 / b-pyramid / bframe-bias=0 / rc-lookahead=60 / lookahead-slices=1 / scenecut=40 / hist-scenecut=0 / radl=0 / no-splice / no-intra-refresh / ctu=32 / min-cu-size=8 / rect / amp / max-tu-size=32 / tu-inter-depth=4 / tu-intra-depth=4 / limit-tu=1 / rdoq-level=1 / dynamic-rd=0.00 / no-ssim-rd / signhide / no-tskip / nr-intra=0 / nr-inter=0 / no-constrained-intra / no-strong-intra-smoothing / max-merge=5 / limit-refs=0 / no-limit-modes / me=3 / subme=7 / merange=57 / temporal-mvp / no-frame-dup / no-hme / weightp / weightb / no-analyze-src-pics / deblock=-2:-2 / no-sao / no-sao-non-deblock / rd=6 / selective-sao=0 / no-early-skip / no-rskip / no-fast-intra / no-tskip-fast / no-cu-lossless / b-intra / no-splitrd-skip / rdpenalty=0 / psy-rd=2.00 / psy-rdoq=1.00 / no-rd-refine / no-lossless / cbqpoffs=0 / crqpoffs=0 / rc=crf / crf=20.6 / qcomp=0.70 / qpstep=4 / stats-write=0 / stats-read=0 / vbv-maxrate=50000 / vbv-bufsize=50000 / vbv-init=0.9 / crf-max=0.0 / crf-min=0.0 / ipratio=1.40 / pbratio=1.30 / aq-mode=2 / aq-strength=1.00 / no-cutree / zone-count=0 / no-strict-cbr / qg-size=32 / no-rc-grain / qpmax=69 / qpmin=0 / no-const-vbv / sar=1 / overscan=0 / videoformat=5 / range=0 / colorprim=1 / transfer=1 / colormatrix=1 / chromaloc=0 / display-window=0 / cll=0,0 / min-luma=0 / max-luma=1023 / log2-max-poc-lsb=8 / vui-timing-info / vui-hrd-info / slices=1 / no-opt-qp-pps / no-opt-ref-list-length-pps / no-multi-pass-opt-rps / scenecut-bias=0.05 / hist-threshold=0.01 / no-opt-cu-delta-qp / no-aq-motion / no-hdr10 / no-hdr10-opt / no-dhdr10-opt / no-idr-recovery-sei / analysis-reuse-level=0 / analysis-save-reuse-level=0 / analysis-load-reuse-level=0 / scale-factor=0 / refine-intra=0 / refine-inter=0 / refine-mv=0 / refine-ctu-distortion=0 / no-limit-sao / ctu-info=0 / no-lowpass-dct / refine-analysis-type=0 / copy-pic=1 / max-ausize-factor=1.0 / no-dynamic-refine / no-single-sei / no-hevc-aq / no-svt / no-field / qp-adaptation-range=1.00 / no-scenecut-aware-qpconformance-window-offsets / right=0 / bottom=0
Язык : English
Default : Да
Forced : Нет
Цветовой диапазон : Limited
Основные цвета : BT.709
Характеристики трансфера : BT.709
Коэффициенты матрицы : BT.709

Аудио #1
Идентификатор : 2
Формат : AC-3
Формат/Информация : Audio Coding 3
Коммерческое название : Dolby Digital
Идентификатор кодека : A_AC3
Продолжительность : 2 ч. 0 м.
Вид битрейта : Постоянный
Битрейт : 640 Кбит/сек
Каналы : 6 каналов
ChannelLayout : L R C LFE Ls Rs
Частота : 48,0 КГц
Частота кадров : 31,250 кадров/сек (1536 SPF)
Битовая глубина : 16 бит
Метод сжатия : С потерями
Размер потока : 553 Мбайт (7%)
Заголовок : Дубляж
Язык : Russian
ServiceKind/ : Complete Main
Default : Да
Forced : Нет

Аудио #2
Идентификатор : 3
Формат : AC-3
Формат/Информация : Audio Coding 3
Коммерческое название : Dolby Digital
Идентификатор кодека : A_AC3
Продолжительность : 2 ч. 0 м.
Вид битрейта : Постоянный
Битрейт : 640 Кбит/сек
Каналы : 6 каналов
ChannelLayout : L R C LFE Ls Rs
Частота : 48,0 КГц
Частота кадров : 31,250 кадров/сек (1536 SPF)
Битовая глубина : 16 бит
Метод сжатия : С потерями
Размер потока : 553 Мбайт (7%)
Заголовок : Немахов
Язык : Russian
ServiceKind/ : Complete Main
Default : Нет
Forced : Нет

Аудио #3
Идентификатор : 4
Формат : AC-3
Формат/Информация : Audio Coding 3
Коммерческое название : Dolby Digital
Идентификатор кодека : A_AC3
Продолжительность : 2 ч. 0 м.
Вид битрейта : Постоянный
Битрейт : 640 Кбит/сек
Каналы : 6 каналов
ChannelLayout : L R C LFE Ls Rs
Частота : 48,0 КГц
Частота кадров : 31,250 кадров/сек (1536 SPF)
Битовая глубина : 16 бит
Метод сжатия : С потерями
Размер потока : 553 Мбайт (7%)
Заголовок : Оригинал
Язык : English
ServiceKind/ : Complete Main
Default : Нет
Forced : Нет

Текст #1
Идентификатор : 5
Формат : UTF-8
Идентификатор кодека : S_TEXT/UTF8
Идентификатор кодека/Информация : UTF-8 Plain Text
Продолжительность : 1 ч. 55 м.
Битрейт : 82 бит/сек
ElementCount : 1077
Размер потока : 69,6 Кбайт (0%)
Заголовок : full
Язык : Russian
Default : Да
Forced : Нет

Текст #2
Идентификатор : 6
Формат : UTF-8
Идентификатор кодека : S_TEXT/UTF8
Идентификатор кодека/Информация : UTF-8 Plain Text
Продолжительность : 1 ч. 53 м.
Битрейт : 59 бит/сек
ElementCount : 1357
Размер потока : 49,2 Кбайт (0%)
Заголовок : full
Язык : English
Default : Нет
Forced : Нет



Релиз от: Spartanec
Не забывайте говорить Спасибо. Не уходите с раздачи!   
Торрент: Зарегистрирован [29 июн 2020, 08:09]
Статус:
 
.torrent скачан: 394 раз
Хэш: c927a708d96875b3b7a4c4675b4932a842312e18
Размер: 8.24 ГБ (8 843 038 574 байт)
   Стать Автором раздачи
   
Цитата

Вернуться в Зарубежное кино (HD Video)

Кто сейчас на конференции

Сейчас эту тему просматривают: нет зарегистрированных пользователей и гости: 1