Паразиты / Parasite / Gisaengchung (2019) BDRip-AVC от ExKinoRay | Лицензия, P, A

 Статистика раздачи 
Размер: 2.52 ГБ   |  Зарегистрирован: 22 май 2020, 00:24   |   .torrent скачан: 221 раз
Сидеров: 86  [ 0 байт/сек ]     Личеров: 22  [ 0 байт/сек ]  
  
Аватара пользователя
 
Раздал: 6.64 ТБ
Скачал: 597.93 ГБ
Ратио: 11.363
Сообщения: 264344
Стаж: 3 года 2 месяца 15 дней

Название: Паразиты
Оригинальное название: Gisaengchung
Год выпуска: 2019
Жанр: Триллер, комедия, драма
Режиссер: Чжун Хо Пон
В ролях: Кан Хо Сон, Сон Гён Ли, Ё Чжон Чо, У Шик Чхве, Со Дам Пак, Хе Джин Чан, Джи Со Чон, Хён Джун Чон, Джон Ын Ли, Со Чжун Пак

Описание: Обычное корейское семейство жизнь не балует. Приходится жить в сыром грязном полуподвале, воровать интернет у соседей и перебиваться случайными подработками. Однажды друг сына семейства, уезжая на стажировку за границу, предлагает тому заменить его и поработать репетитором у старшеклассницы в богатой семье Пак. Подделав диплом о высшем образовании, парень отправляется в шикарный дизайнерский особняк и производит на хозяйку дома хорошее впечатление. Тут же ему в голову приходит необычный план по трудоустройству сестры.



Страна: Корея Южная
Студия: Barunson E&A, CJ E&M Film Financing & Investment Entertainment & Comics, CJ Entertainment
Продолжительность: 02:12:00
Перевод: Дублированный | [Лицензия]
Профессиональный многоголосый | [HDRezka Studio]
Авторский закадровый | [Сербин]

Формат: MKV
Качество: BDRip-AVC
Видео: MPEG-4 AVC, 1024x428 (2.40:1), 23.976 fps, 1710 Kbps, 0.163 bit/pixel
Аудио 1: 48 kHz, AC3, 5.1, 448 Kbps | Dub | RUS |
Аудио 2: 48 kHz, AC3, 2.0, 192 Kbps | MVO | RUS |
Аудио 3: 48 kHz, AC3, 5.1, 384 Kbps | AVO | RUS |
Субтитры: Русские (форсированные и полные), английские

General
Unique ID : 200595725798201617802851020535953226479 (0x96E954DD62DB972DAFCEE8F6F5F5FAEF)
Complete name : F:Gisaengchung.2019.BDRip.AVC.ExKinoRay.mkv
Format : Matroska
Format version : Version 2
File size : 2.52 GiB
Duration : 2 h 12 min
Overall bit rate : 2 735 kb/s
Movie name : Gisaengchung 2019 from ExKinoRay
Encoded date : UTC 2020-05-21 20:45:16
Writing application : mkvmerge v5.6.0 ('Kenya Kane') built on May 27 2012 16:44:04
Writing library : libebml v1.2.3 + libmatroska v1.3.0

Video
ID : 1
Format : AVC
Format/Info : Advanced Video Codec
Format profile : High@L4.1
Format settings, CABAC : Yes
Format settings, ReFrames : 12 frames
Codec ID : V_MPEG4/ISO/AVC
Duration : 2 h 12 min
Bit rate : 1 710 kb/s
Width : 1 024 pixels
Height : 428 pixels
Display aspect ratio : 2.40:1
Frame rate mode : Constant
Frame rate : 23.976 (23976/1000) FPS
Color space : YUV
Chroma subsampling : 4:2:0
Bit depth : 8 bits
Scan type : Progressive
Bits/(Pixel*Frame) : 0.163
Stream size : 1.53 GiB (61%)
Title : Enigma
Writing library : x264 core 152 r2851 ba24899
Encoding settings : cabac=1 / ref=12 / deblock=1:-2:-2 / analyse=0x3:0x113 / me=umh / subme=10 / psy=1 / psy_rd=1.00:0.05 / mixed_ref=1 / me_range=32 / chroma_me=1 / trellis=2 / 8x8dct=1 / cqm=0 / deadzone=21,11 / fast_pskip=0 / chroma_qp_offset=-3 / threads=12 / lookahead_threads=3 / sliced_threads=0 / nr=0 / decimate=0 / interlaced=0 / bluray_compat=0 / constrained_intra=0 / bframes=10 / b_pyramid=2 / b_adapt=2 / b_bias=0 / direct=3 / weightb=1 / open_gop=0 / weightp=2 / keyint=240 / keyint_min=23 / scenecut=40 / intra_refresh=0 / rc=2pass / mbtree=0 / bitrate=1710 / ratetol=1.0 / qcomp=0.60 / qpmin=0 / qpmax=51 / qpstep=4 / cplxblur=20.0 / qblur=0.5 / ip_ratio=1.40 / pb_ratio=1.30 / aq=1:1.00
Language : English
Default : Yes
Forced : No
Color range : Limited
Color primaries : BT.709
Transfer characteristics : BT.709
Matrix coefficients : BT.709

Audio #1
ID : 2
Format : AC-3
Format/Info : Audio Coding 3
Mode extension : CM (complete main)
Format settings, Endianness : Big
Codec ID : A_AC3
Duration : 2 h 12 min
Bit rate mode : Constant
Bit rate : 448 kb/s
Channel(s) : 6 channels
Channel positions : Front: L C R, Side: L R, LFE
Sampling rate : 48.0 kHz
Frame rate : 31.250 FPS (1536 spf)
Compression mode : Lossy
Stream size : 423 MiB (16%)
Title : Dub (Blu-Ray)
Language : Russian
Default : Yes
Forced : No

Audio #2
ID : 3
Format : AC-3
Format/Info : Audio Coding 3
Mode extension : CM (complete main)
Format settings, Endianness : Big
Codec ID : A_AC3
Duration : 2 h 12 min
Bit rate mode : Constant
Bit rate : 192 kb/s
Channel(s) : 2 channels
Channel positions : Front: L R
Sampling rate : 48.0 kHz
Frame rate : 31.250 FPS (1536 spf)
Compression mode : Lossy
Stream size : 181 MiB (7%)
Title : MVO
Language : Russian
Default : No
Forced : No

Audio #3
ID : 4
Format : AC-3
Format/Info : Audio Coding 3
Mode extension : CM (complete main)
Format settings, Endianness : Big
Codec ID : A_AC3
Duration : 2 h 12 min
Bit rate mode : Constant
Bit rate : 384 kb/s
Channel(s) : 6 channels
Channel positions : Front: L C R, Side: L R, LFE
Sampling rate : 48.0 kHz
Frame rate : 31.250 FPS (1536 spf)
Compression mode : Lossy
Stream size : 363 MiB (14%)
Title : AVO (Serbin)
Language : Russian
Default : No
Forced : No

Text #1
ID : 5
Format : UTF-8
Codec ID : S_TEXT/UTF8
Codec ID/Info : UTF-8 Plain Text
Title : Forced
Language : Russian
Default : Yes
Forced : No

Text #2
ID : 6
Format : UTF-8
Codec ID : S_TEXT/UTF8
Codec ID/Info : UTF-8 Plain Text
Title : Focs
Language : Russian
Default : No
Forced : No

Text #3
ID : 7
Format : UTF-8
Codec ID : S_TEXT/UTF8
Codec ID/Info : UTF-8 Plain Text
Title : kornickolay
Language : Russian
Default : No
Forced : No

Text #4
ID : 8
Format : UTF-8
Codec ID : S_TEXT/UTF8
Codec ID/Info : UTF-8 Plain Text
Title : Full
Language : English
Default : No
Forced : No

Menu
00:00:00.000 : en:Chapter 1
00:05:44.802 : en:Chapter 2
00:12:16.610 : en:Chapter 3
00:20:35.484 : en:Chapter 4
00:29:21.926 : en:Chapter 5
00:37:05.348 : en:Chapter 6
00:46:19.943 : en:Chapter 7
00:53:52.979 : en:Chapter 8
01:02:55.646 : en:Chapter 9
01:12:10.242 : en:Chapter 10
01:23:25.834 : en:Chapter 11
01:32:19.659 : en:Chapter 12
01:41:22.284 : en:Chapter 13
01:48:21.912 : en:Chapter 14
01:56:07.502 : en:Chapter 15
02:07:06.744 : en:Chapter 16



Релиз от:

Автор релиза:
Не забывайте говорить Спасибо. Не уходите с раздачи!   
Торрент: Зарегистрирован [22 май 2020, 00:24]
Статус:
Проверен
 
.torrent скачан: 221 раз
Хэш: bacb4e541846bc0a6aac6a12ba4567f1c3e7461a
Размер: 2.52 ГБ (2 708 108 535 байт)
   Стать Автором раздачи
   
Цитата
  • Похожие торренты
    Ответы
    Просмотры
    Последнее сообщение

Вернуться в Зарубежное кино (HDRip, DVDRip)

Кто сейчас на конференции

Сейчас эту тему просматривают: нет зарегистрированных пользователей и гости: 1