Рэмбо: Последняя кровь / Rambo: Last Blood (2019) BDRip-AVC от ExKinoRay | Лицензия | Расширенная версия

 Статистика раздачи 
Размер: 1.45 ГБ   |  Зарегистрирован: 21 май 2020, 23:21   |   .torrent скачан: 302 раз
Сидеров: 112  [ 0 байт/сек ]     Личеров: 21  [ 0 байт/сек ]  
  
Аватара пользователя
 
Раздал: 6.64 ТБ
Скачал: 597.93 ГБ
Ратио: 11.363
Сообщения: 264344
Стаж: 3 года 2 месяца 15 дней

Название: Рэмбо: Последняя кровь
Оригинальное название: Rambo: Last Blood
Год выпуска: 2019
Жанр: Боевик, триллер, приключения
Режиссер: Адриан Грюнберг
В ролях: Сильвестр Сталлоне, Пас Вега, Ивет Монреаль, Луис Мэндилор, Оскар Хаенада, Шила Шах, Серхио Перис-Менчета, Джессика Мэдсен, Хоакин Косио, Адриана Барраса, Джени Ким, Паскасио Лопес, Александр Димитров

Описание: Он хранил секреты всю жизнь, но пришло время взглянуть в глаза прошлому. В последний раз собраться и стать безжалостной машиной для убийства. Рэмбо снова встанет на смертельно опасный путь — путь мести, который ему придется пройти до конца.



Страна: США, Испания, Болгария
Студия: Balboa Productions, Campbell Grobman Films, Dadi Film Group
Продолжительность: 01:40:30
Перевод: Дублированный | Лицензия

Формат: MKV
Качество: BDRip-AVC
Видео: MPEG-4 AVC, 720x302 (2.40:1), 23.976 fps, 1614 Kbps, 0.310 bit/pixel
Аудио: Russian: 48 kHz, AC3, 3/2 (L,C,R,l,r) + LFE ch, ~448 kbps avg | Dub |
Субтитры: Русские (Full (Enigma)), английские

*Видеоряд без хардсаба

General
Unique ID : 234831151573227395138715540182352186843 (0xB0AAD5ACDDCB20118F0CB772BF66CDDB)
Complete name : F:Rambo.Last.Blood.2019.Extended.BDRip.AVC.ExKinoRay.mkv
Format : Matroska
Format version : Version 2
File size : 1.45 GiB
Duration : 1 h 40 min
Overall bit rate : 2 062 kb/s
Movie name : Rambo Last Blood 2019 from ExKinoRay
Encoded date : UTC 2020-05-21 19:45:32
Writing application : mkvmerge v5.6.0 ('Kenya Kane') built on May 27 2012 16:44:04
Writing library : libebml v1.2.3 + libmatroska v1.3.0

Video
ID : 1
Format : AVC
Format/Info : Advanced Video Codec
Format profile : High@L4.1
Format settings, CABAC : Yes
Format settings, ReFrames : 11 frames
Codec ID : V_MPEG4/ISO/AVC
Duration : 1 h 40 min
Bit rate : 1 614 kb/s
Width : 720 pixels
Height : 302 pixels
Display aspect ratio : 2.40:1
Frame rate mode : Constant
Frame rate : 23.976 (24000/1001) FPS
Original frame rate : 23.976 (23976/1000) FPS
Color space : YUV
Chroma subsampling : 4:2:0
Bit depth : 8 bits
Scan type : Progressive
Bits/(Pixel*Frame) : 0.310
Stream size : 1.10 GiB (76%)
Title : Enigma
Writing library : x264 core 152 r2851 ba24899
Encoding settings : cabac=1 / ref=11 / deblock=1:-2:-2 / analyse=0x3:0x113 / me=umh / subme=10 / psy=1 / psy_rd=1.00:0.05 / mixed_ref=1 / me_range=32 / chroma_me=1 / trellis=2 / 8x8dct=1 / cqm=0 / deadzone=21,11 / fast_pskip=0 / chroma_qp_offset=-3 / threads=9 / lookahead_threads=2 / sliced_threads=0 / nr=0 / decimate=0 / interlaced=0 / bluray_compat=0 / constrained_intra=0 / bframes=10 / b_pyramid=2 / b_adapt=2 / b_bias=0 / direct=3 / weightb=1 / open_gop=0 / weightp=2 / keyint=240 / keyint_min=23 / scenecut=40 / intra_refresh=0 / rc=2pass / mbtree=0 / bitrate=1614 / ratetol=1.0 / qcomp=0.60 / qpmin=0 / qpmax=51 / qpstep=4 / cplxblur=20.0 / qblur=0.5 / ip_ratio=1.40 / pb_ratio=1.30 / aq=1:1.00
Default : Yes
Forced : No
Color range : Limited
Color primaries : BT.709
Transfer characteristics : BT.709
Matrix coefficients : BT.709

Audio
ID : 2
Format : AC-3
Format/Info : Audio Coding 3
Mode extension : CM (complete main)
Format settings, Endianness : Big
Codec ID : A_AC3
Duration : 1 h 40 min
Bit rate mode : Constant
Bit rate : 448 kb/s
Channel(s) : 6 channels
Channel positions : Front: L C R, Side: L R, LFE
Sampling rate : 48.0 kHz
Frame rate : 31.250 FPS (1536 spf)
Compression mode : Lossy
Stream size : 322 MiB (22%)
Title : Dub (Blu-Ray)
Language : Russian
Default : Yes
Forced : No

Text #1
ID : 3
Format : UTF-8
Codec ID : S_TEXT/UTF8
Codec ID/Info : UTF-8 Plain Text
Title : Full (Enigma)
Language : Russian
Default : No
Forced : No

Text #2
ID : 4
Format : UTF-8
Codec ID : S_TEXT/UTF8
Codec ID/Info : UTF-8 Plain Text
Language : English
Default : No
Forced : No

Menu
00:00:00.000 : en:Глава 01
00:08:00.063 : en:Глава 02
00:18:19.265 : en:Глава 03
00:29:01.031 : en:Глава 04
00:38:06.242 : en:Глава 05
00:44:42.513 : en:Глава 06
00:51:34.800 : en:Глава 07
00:59:39.326 : en:Глава 08
01:07:53.152 : en:Глава 09
01:14:41.060 : en:Глава 10
01:21:38.852 : en:Глава 11
01:29:51.344 : en:Глава 12



Релиз от:
Автор релиза:
Не забывайте говорить Спасибо. Не уходите с раздачи!   
Торрент: Зарегистрирован [21 май 2020, 23:21]
Статус:
Проверен
 
.torrent скачан: 302 раз
Хэш: be6c9a110ea5b400c8b30932a550d8283f9ffe25
Размер: 1.45 ГБ (1 554 187 589 байт)
   Стать Автором раздачи
   
Цитата
  • Похожие торренты
    Ответы
    Просмотры
    Последнее сообщение

Вернуться в Зарубежное кино (HDRip, DVDRip)

Кто сейчас на конференции

Сейчас эту тему просматривают: нет зарегистрированных пользователей и гости: 1