Белфегор - призрак Лувра / Belphégor - Le fantôme du Louvre (2001) BDRip-AVC от ExKinoRay | D

 Статистика раздачи 
Размер: 744.74 МБ   |  Зарегистрирован: 21 май 2020, 22:57   |   .torrent скачан: 481 раз
Сидеров: 66  [ 0 байт/сек ]     Личеров: 16  [ 0 байт/сек ]  
  
Аватара пользователя
 
Раздал: 6.64 ТБ
Скачал: 597.93 ГБ
Ратио: 11.363
Сообщения: 264344
Стаж: 3 года 2 месяца 15 дней

Информация о фильме
Название: Белфегор - призрак Лувра
Оригинальное название: Belphegor, Phantom of the Louvre
Год выхода: 2001
Жанр: Ужасы, фэнтези, детектив
Режиссер: Жан-Пол Салом
В ролях: Софи Марсо, Мишель Серро, Фредерик Дифенталь, Джули Кристи, Жан-Франсуа Бальме, Паташу, Лионель Абелански, Франсуаз Лепин, Франсуа Леванталь, Жак Марсаль, Филипп Мэймат, Пьер Осседа, Маттео Вэллон, Жан-Клод Боль-Редда, Жюльетт Греко, Оливье Клавери, Бела Грушка, Реми Рубаха, Кристоф Вейлон, Жан-Христоф Гербет, Венсан Мартен, Реми Дарси, Патрис Аббу, Кристиан Эк, Николас Рафаль, Лоранс Колюсси, Кристина Кревиллен, Стефан Элбаум, Стефан Фонкинос, Лоран Бато

О фильме:
Белфегор - таинственный призрак, который неразрывно связан с древней египетской мумией, доставленной в начале XX века в Лувр. Все члены экипажа корабля, на котором была привезена страшная реликвия скоропостижно умерли один за другим. Теперь призрак должен обрести свободу с помощью хрупкой девушки Лизы...

Страна: Франция
Студия: Les Films Alain Sarde, TF1 Films Production, Canal+
Продолжительность: 01:36:34
Перевод: Профессиональный (полное дублирование)

Файл
Формат: MKV
Качество: BDRip-AVC
Видео: MPEG-4 AVC, 768x322, - 1001 Кбит/с
Аудио: AAC-HE, 2 ch, - 76 Кбит/с
Субтитры: Русские, английские

Общее
Уникальный идентификатор : 99261964799076578957722919706229840883 (0x4AAD28B67C953C36ED42F91CCD099BF3)
Полное имя : D:MOVIESBelfegor.prizrak.luvra.2001.BDRip-AVC.ExKinoRay.mkv
Формат : Matroska
Версия формата : Version 4
Размер файла : 745 Мбайт
Продолжительность : 1 ч. 36 м.
Общий поток : 1 078 Кбит/сек
Дата кодирования : UTC 2020-05-21 19:43:07
Программа кодирования : mkvmerge v45.0.0 ('Heaven in Pennies') 64-bit
Библиотека кодирования : libebml v1.3.10 + libmatroska v1.5.2

Видео
Идентификатор : 1
Формат : AVC
Формат/Информация : Advanced Video Codec
Профиль формата : High@L4.1
Настройки формата : CABAC / 11 Ref Frames
Параметр CABAC формата : Да
Параметр RefFrames формата : 11 кадров
Идентификатор кодека : V_MPEG4/ISO/AVC
Продолжительность : 1 ч. 36 м.
Битрейт : 1 001 Кбит/сек
Ширина : 768 пикселей
Высота : 322 пикселя
Соотношение сторон : 2,40:1
Режим частоты кадров : Постоянный
Частота кадров : 23,976 (24000/1001) кадра/сек
Цветовое пространство : YUV
Субдискретизация насыщенности : 4:2:0
Битовая глубина : 8 бит
Тип развёртки : Прогрессивная
Бит/(Пиксели*Кадры) : 0.169
Размер потока : 691 Мбайт (93%)
Библиотека кодирования : x264 core 160 r3000 33f9e14
Настройки программы : cabac=1 / ref=11 / deblock=1:-3:-3 / analyse=0x3:0x133 / me=umh / subme=10 / psy=1 / psy_rd=1.05:0.12 / mixed_ref=1 / me_range=32 / chroma_me=1 / trellis=2 / 8x8dct=1 / cqm=0 / deadzone=21,11 / fast_pskip=0 / chroma_qp_offset=-3 / threads=6 / lookahead_threads=1 / sliced_threads=0 / nr=0 / decimate=0 / interlaced=0 / bluray_compat=0 / constrained_intra=0 / bframes=12 / b_pyramid=2 / b_adapt=2 / b_bias=0 / direct=3 / weightb=1 / open_gop=0 / weightp=2 / keyint=240 / keyint_min=23 / scenecut=40 / intra_refresh=0 / rc_lookahead=40 / rc=2pass / mbtree=1 / bitrate=1001 / ratetol=1.0 / qcomp=0.60 / qpmin=0 / qpmax=69 / qpstep=4 / cplxblur=20.0 / qblur=0.5 / ip_ratio=1.40 / aq=3:1.00
Default : Да
Forced : Нет
Цветовой диапазон : Limited
Основные цвета : BT.709
Характеристики трансфера : BT.709
Коэффициенты матрицы : BT.709

Аудио
Идентификатор : 2
Формат : AAC LC SBR
Формат/Информация : Advanced Audio Codec Low Complexity with Spectral Band Replication
Коммерческое название : HE-AAC
Настройки формата : Explicit
Идентификатор кодека : A_AAC-2
Продолжительность : 1 ч. 36 м.
Битрейт : 76,0 Кбит/сек
Каналы : 2 канала
Channel layout : L R
Частота : 48,0 КГц
Частота кадров : 23,438 кадра/сек (2048 SPF)
Метод сжатия : С потерями
Задержка видео : 31 мс.
Размер потока : 52,5 Мбайт (7%)
Язык : Russian
Default : Да
Forced : Нет

Текст #1
Идентификатор : 3
Формат : UTF-8
Идентификатор кодека : S_TEXT/UTF8
Идентификатор кодека/Информация : UTF-8 Plain Text
Продолжительность : 1 ч. 31 м.
Битрейт : 104 бит/сек
Count of elements : 1145
Размер потока : 69,7 Кбайт (0%)
Язык : Russian
Default : Да
Forced : Нет

Текст #2
Идентификатор : 4
Формат : UTF-8
Идентификатор кодека : S_TEXT/UTF8
Идентификатор кодека/Информация : UTF-8 Plain Text
Продолжительность : 1 ч. 30 м.
Битрейт : 65 бит/сек
Count of elements : 1037
Размер потока : 43,7 Кбайт (0%)
Язык : English
Default : Нет
Forced : Нет


Не забывайте говорить Спасибо. Не уходите с раздачи!   
Торрент: Зарегистрирован [21 май 2020, 22:57]
Статус:
Проверен
 
.torrent скачан: 481 раз
Хэш: b84375e17824669d9810034cae1350026c739f4b
Размер: 744.74 МБ (780 914 319 байт)
   Стать Автором раздачи
   
Цитата

Вернуться в Зарубежное кино (HDRip, DVDRip)

Кто сейчас на конференции

Сейчас эту тему просматривают: нет зарегистрированных пользователей и гости: 1