7 хранителей гробницы / 7 Guardians of the Tomb (2018) WEB-DLRip-AVC | HDRezka Studio

 Статистика раздачи 
Размер: 744.3 МБ   |  Зарегистрирован: 21 май 2020, 22:50   |   .torrent скачан: 1503 раз
Сидеров: 556  [ 0 байт/сек ]     Личеров: 98  [ 0 байт/сек ]  
  
Аватара пользователя
 
Раздал: 6.64 ТБ
Скачал: 597.93 ГБ
Ратио: 11.363
Сообщения: 264344
Стаж: 3 года 2 месяца 15 дней

Информация о фильме
Название: 7 хранителей гробницы
Оригинальное название: 7 Guardians of the Tomb
Год выхода: 2018
Жанр: Боевик, приключения, ужасы
Режиссер: Кимбл Рендалл
В ролях: Бинбин Ли, Келлан Латс, У Чунь, Келси Грэммер, Стэф Доусон, Ясмин Кассим, Тим Драксл, Шэйн Джейкобсон, Райан Джонсон (II), Джейсон Чонг, Чэнь Цюаньхуа, Гленн Чоу, Уоррен Ли, Кристин Мило

О фильме:
Группа ученых-археологов во время поисков пропавшего коллеги случайно находит вход в древнее подземелье, содержимое которого сулит исследователям мировую известность. Однако в скором времени выясняется, что уникальные подземные сооружения таят в себе смертельную опасность для всякого, кто дерзнет нарушить покой этих мест. Научные изыскания отходят на второй план, ведь теперь главное – выжить и в кратчайшие сроки покинуть старинные лабиринты, превратившиеся в ловушку.



Страна: Китай, Австралия, Россия, Таиланд
Студия: Nest Holdings, Sleeping Otters Productions
Продолжительность: 01:30:29
Перевод: Профессиональный многоголосый | HDRezka Studio
Субтитры: Русские (Forced), английские, испанские
► Без Рекламы!

Файл
Формат: Matroska
Качество: WEB-DLRip-AVC
Видео: 752x316 at 23.976 fps, x264, ~1085 kbps, 0.190 bpp
Аудио: AAC, 2 ch, ~64 kbps - | Русский | -
Формат субтитров: softsub (SRT)

***Релиз от: -=DoMiNo=-

x264 [info]: frame I:1198 Avg QP:12.18 size: 37405
x264 [info]: frame P:32165 Avg QP:15.76 size: 12129
x264 [info]: frame B:96821 Avg QP:17.61 size: 3102

General
Format : Matroska
Format version : Version 4
File size : 744 MiB
Duration : 1 h 30 min
Overall bit rate : 1 150 kb/s
Movie name : 7 хранителей гробницы.(2018).WEB-DLRip-AVC.[-=DoMiNo=-]
Encoded date : UTC 2020-05-21 19:44:21
Writing application : mkvmerge v46.0.0 ('No Deeper Escape') 64-bit
Writing library : libebml v1.3.10 + libmatroska v1.5.2
Cover : Yes
Attachments : cover.jpg / cover 2.jpg

Video
ID : 1
Format : AVC
Format/Info : Advanced Video Codec
Format profile : High@L4.1
Format settings : CABAC / 12 Ref Frames
Format settings, CABAC : Yes
Format settings, Reference : 12 frames
Codec ID : V_MPEG4/ISO/AVC
Duration : 1 h 30 min
Bit rate : 1 085 kb/s
Width : 752 pixels
Height : 316 pixels
Display aspect ratio : 2.40:1
Frame rate mode : Constant
Frame rate : 23.976 (24000/1001) FPS
Color space : YUV
Chroma subsampling : 4:2:0
Bit depth : 8 bits
Scan type : Progressive
Bits/(Pixel*Frame) : 0.190
Stream size : 701 MiB (94%)
Title : RIP BY -=DoMiNo=-
Writing library : x264 core 160 r3000 33f9e14
Encoding settings : cabac=1 / ref=12 / deblock=1:-3:-2 / analyse=0x3:0x133 / me=umh / subme=10 / psy=1 / psy_rd=1.05:0.15 / mixed_ref=1 / me_range=32 / chroma_me=1 / trellis=2 / 8x8dct=1 / cqm=0 / deadzone=21,11 / fast_pskip=0 / chroma_qp_offset=-3 / threads=6 / lookahead_threads=1 / sliced_threads=0 / nr=0 / decimate=0 / interlaced=0 / bluray_compat=0 / constrained_intra=0 / bframes=12 / b_pyramid=2 / b_adapt=2 / b_bias=0 / direct=3 / weightb=1 / open_gop=0 / weightp=2 / keyint=250 / keyint_min=23 / scenecut=40 / intra_refresh=0 / rc_lookahead=60 / rc=2pass / mbtree=0 / bitrate=1085 / ratetol=1.0 / qcomp=0.60 / qpmin=0 / qpmax=69 / qpstep=4 / cplxblur=20.0 / qblur=0.5 / vbv_maxrate=50000 / vbv_bufsize=62500 / nal_hrd=none / filler=0 / ip_ratio=1.40 / pb_ratio=1.30 / aq=3:0.90
Language : English
Default : Yes
Forced : No
Color range : Limited
Color primaries : BT.709
Transfer characteristics : BT.709
Matrix coefficients : BT.709

Audio
ID : 2
Format : AAC LC SBR
Format/Info : Advanced Audio Codec Low Complexity with Spectral Band Replication
Commercial name : HE-AAC
Format settings : Implicit
Codec ID : A_AAC-2
Duration : 1 h 30 min
Bit rate : 64.0 kb/s
Channel(s) : 2 channels
Channel layout : L R
Sampling rate : 48.0 kHz
Frame rate : 23.438 FPS (2048 SPF)
Compression mode : Lossy
Stream size : 41.4 MiB (6%)
Title : MVO_[HDRezka Studio]
Language : Russian
Default : Yes
Forced : No

Text #1
ID : 3
Format : UTF-8
Codec ID : S_TEXT/UTF8
Codec ID/Info : UTF-8 Plain Text
Duration : 1 h 20 min
Bit rate : 0 b/s
Count of elements : 9
Stream size : 533 Bytes (0%)
Title : forced
Language : Russian
Default : No
Forced : Yes

Text #2
ID : 4
Format : UTF-8
Codec ID : S_TEXT/UTF8
Codec ID/Info : UTF-8 Plain Text
Duration : 1 h 20 min
Bit rate : 42 b/s
Count of elements : 951
Stream size : 25.2 KiB (0%)
Language : English
Default : No
Forced : No

Text #3
ID : 5
Format : UTF-8
Codec ID : S_TEXT/UTF8
Codec ID/Info : UTF-8 Plain Text
Duration : 1 h 20 min
Bit rate : 51 b/s
Count of elements : 998
Stream size : 30.4 KiB (0%)
Language : Spanish
Default : No
Forced : No

Menu
00:00:00.000 : en:Chapter 1
00:09:49.672 : en:Chapter 2
00:19:50.397 : en:Chapter 3
00:30:26.449 : en:Chapter 4
00:41:27.735 : en:Chapter 5
00:51:29.377 : en:Chapter 6
01:02:05.596 : en:Chapter 7
01:10:19.048 : en:Chapter 8
01:23:23.206 : en:Chapter 9
Не забывайте говорить Спасибо. Не уходите с раздачи!   
Торрент: Зарегистрирован [21 май 2020, 22:50]
Статус:
Проверен
 
.torrent скачан: 1503 раз
Хэш: 523e233f0bbea8898876d5cd5807bf3fc69f51e2
Размер: 744.3 МБ (780 458 517 байт)
   Стать Автором раздачи
   
Цитата

Вернуться в Зарубежное кино (HDRip, DVDRip)

Кто сейчас на конференции

Сейчас эту тему просматривают: нет зарегистрированных пользователей и гости: 1