Война токов / The Current War (2017) BDRip | Режиссерская версия | iTunes

 Статистика раздачи 
Размер: 1.45 ГБ   |  Зарегистрирован: 25 мар 2020, 22:28   |   .torrent скачан: 880 раз
Сидеров: 232  [ 0 байт/сек ]     Личеров: 54  [ 0 байт/сек ]  
  
Аватара пользователя
Главный редактор
Главный редактор
 
Раздал: 90.01 ТБ
Скачал: 3.78 ТБ
Ратио: 24.248
Сообщения: 288153
Стаж: 9 лет 5 месяцев 3 дня
Откуда: Санкт-Петербург

Информация о фильме
Название: Война токов
Оригинальное название: The Current War
Год выхода: 2017
Жанр: Биография, история, драма
Страна: США, Россия, Великобритания
Перевод: Дублированный | iTunes
Продолжительность: 01:42:17
Режиссер: Альфонсо Гомес-Рехон
В ролях: Бенедикт Камбербэтч, Том Холланд, Майкл Шеннон, Николас Холт, Кэтрин Уотерстон, Мэттью Макфэдиен, Оливер Пауэлл, Нэнси Крэйн, Лиза Росс, Тим Стид и др.

О фильме: Америка, 1880 год. Мир освещается огнём, механизмы приводятся в движение паром или приложением силы. Гениальный изобретатель Томас Эдисон совершил ряд прорывных открытий, среди которых постоянный ток и изобретение лампы накаливания. Пока он встречается с инвесторами, инженер Джордж Вестингауз, сколотивший состояние на патенте тормозов для поездов, видит больше преимуществ в использовании переменного тока. Кроме того, недальновидный бизнесмен Эдисон берёт на работу простым инженером эмигранта Николу Теслу, и не увидев в его идеях потенциала, вскоре теряет ценного сотрудника. Соревнование за электрификацию американских городов — война постоянного и переменного токов продолжается.



Файл
Формат: AVI
Качество: BDRip | The.Current.War.2017.DC.REPACK.COMPLETE.BLURAY-WUTANG
Видео: Xvid 73, 720x304, 1642 kbps, 23,976 fps
Звук: русский, AC3, 5.1 ch, 48 kHz, 384 kbps | iTunes
Субтитры: русские (форс. вшитые)

Общее
Полное имя : G:Torrent2VojnaTokovBDRip.avi
Формат : AVI
Формат/Информация : Audio Video Interleave
Размер файла : 1,45 Гбайт
Продолжительность : 1 ч. 42 м.
Общий поток : 2035 Кбит/сек
Программа кодирования : VirtualDubMod 1.5.10.3 | www.virtualdub-fr.org || (build 2550/release)
Библиотека кодирования : VirtualDubMod build 2550/release

Видео
Идентификатор : 0
Формат : MPEG-4 Visual
Профиль формата : Advanced Simple@L5
Настройки формата : BVOP1 / Custom Matrix
Параметр BVOP формата : 1
Параметр QPel формата : Нет
Параметр GMC формата : Без точки перехода
Параметр матрицы формата : Выборочная
Идентификатор кодека : XVID
Идентификатор кодека/Подсказка : XviD
Продолжительность : 1 ч. 42 м.
Битрейт : 1642 Кбит/сек
Ширина : 720 пикселей
Высота : 304 пикселя
Соотношение сторон : 2,35:1
Частота кадров : 23,976 (24000/1001) кадра/сек
Цветовое пространство : YUV
Субдискретизация насыщенности : 4:2:0
Битовая глубина : 8 бит
Тип развёртки : Прогрессивная
Метод сжатия : С потерями
Бит/(Пиксели*Кадры) : 0.313
Размер потока : 1,17 Гбайт (81%)
Библиотека кодирования : XviD 73

Аудио
Идентификатор : 1
Формат : AC-3
Формат/Информация : Audio Coding 3
Параметр Endianness формата : Big
Идентификатор кодека : 2000
Продолжительность : 1 ч. 42 м.
Вид битрейта : Постоянный
Битрейт : 384 Кбит/сек
Каналы : 6 каналов
Расположение каналов : Front: L C R, Side: L R, LFE
Частота : 48,0 КГц
Частота кадров : 31,250 кадров/сек (1536 SPF)
Битовая глубина : 16 бит
Метод сжатия : С потерями
Размер потока : 281 Мбайт (19%)
Выравнивание : Разделение по промежуткам
Продолжительность промежутка : 42 мс. (1,00 видеокадр)
Время предзагрузки промежутка : 500 мс.



Рип и релиз от:
Не забывайте говорить Спасибо. Не уходите с раздачи!   
Торрент: Зарегистрирован [25 мар 2020, 22:28]
Статус:
 
.torrent скачан: 880 раз
Хэш: c34e631bc7882014360d6b1a05361d692ca9db26
Размер: 1.45 ГБ (1 561 487 360 байт)
   Стать Автором раздачи
   
Цитата

Вернуться в Зарубежное кино (HDRip, DVDRip)

Кто сейчас на конференции

Сейчас эту тему просматривают: нет зарегистрированных пользователей и гости: 1