Связь / Bound (1996) BDRip-AVC | P

 Статистика раздачи 
Размер: 2.19 ГБ   |  Зарегистрирован: 25 мар 2020, 20:47   |   .torrent скачан: 248 раз
Сидеров: 60  [ 0 байт/сек ]     Личеров: 23  [ 0 байт/сек ]  
  
Аватара пользователя
Главный редактор
Главный редактор
Я на сайте
 
Раздал: 90.01 ТБ
Скачал: 3.78 ТБ
Ратио: 24.248
Сообщения: 288692
Стаж: 9 лет 5 месяцев 7 дней
Откуда: Санкт-Петербург
СообщениеДобавлено: 25 мар 2020, 20:47




Информация о фильме
Название: Связь
Оригинальное название: Bound
Год выхода: 1996
Жанр: Триллер, драма, криминал
Режиссер: Энди Вачовски / Andy Wachowski, Ларри Вачовски / Larry Wachowski (это те, кто сняли "Матрицу")
В ролях: Дженнифер Тилли, Джина Гершон, Бэрри Кайвел, Кристофер Мелони, Мэри Мара, Ричард С. Сарафьян, Джон Райан, Джо Пантолиано

О фильме:
Один из членов мафии присвоил два миллиона долларов, был разоблачен, подвергнут пыткам и убит. Все это происходило на глазах Вайолет, любовницы гангстера Сизара, у них дома. Она вообще многое знала, поскольку Сизар никогда ничего от нее не скрывал. А в соседней квартире обосновалась только что вышедшая из тюрьмы суперсексуальная лесбиянка Корки.
Так родилась страстная связь двух женщин, а вместе с ней и идея присвоить те самые миллионы, которые хранятся у Сизара для босса мафии Джино Марзоне. Но не все пошло так, как было задумано.



Выпущено: США
Продолжительность: 01:48:34
Перевод: Профессиональный (многоголосый, закадровый) R5/Лицензия
Субтитры: Russian, English

Файл
Качество: BDRip-AVC
Формат: MKV
Видео: 1040x560, 2434 kbps, 23.976 fps
Аудио: AC3, 6 channels, 48 KHz, 448 kbps
Формат субтитров: softsub (SRT)

***Релиз от: -=DoMiNo=-



General
Format : Matroska
Format version : Version 4
File size : 2.19 GiB
Duration : 1 h 48 min
Overall bit rate : 2 882 kb/s
Movie name : Связь.(1996).BDRip-AVC.[-=DoMiNo=-]
Encoded date : UTC 2020-03-25 17:44:57
Writing application : mkvmerge v44.0.0 ('Domino') 64-bit
Writing library : libebml v1.3.10 + libmatroska v1.5.2
Attachments : poster.jpg / poster 2.jpg

Video
ID : 1
Format : AVC
Format/Info : Advanced Video Codec
Format profile : High@L4.1
Format settings : CABAC / 10 Ref Frames
Format settings, CABAC : Yes
Format settings, Reference : 10 frames
Codec ID : V_MPEG4/ISO/AVC
Duration : 1 h 48 min
Bit rate : 2 434 kb/s
Width : 1 040 pixels
Height : 560 pixels
Display aspect ratio : 1.85:1
Frame rate mode : Constant
Frame rate : 23.976 (24000/1001) FPS
Color space : YUV
Chroma subsampling : 4:2:0
Bit depth : 8 bits
Scan type : Progressive
Bits/(Pixel*Frame) : 0.174
Stream size : 1.84 GiB (84%)
Title : RIP_BY_-=DoMiNo=-
Writing library : x264 core 130 r2273 b3065e6
Encoding settings : cabac=1 / ref=10 / deblock=1:-3:-3 / analyse=0x3:0x133 / me=esa / subme=11 / psy=1 / psy_rd=1.00:0.50 / mixed_ref=1 / me_range=24 / chroma_me=1 / trellis=2 / 8x8dct=1 / cqm=0 / deadzone=21,11 / fast_pskip=0 / chroma_qp_offset=-3 / threads=16 / lookahead_threads=4 / sliced_threads=0 / slices=4 / nr=0 / decimate=0 / interlaced=0 / bluray_compat=0 / constrained_intra=0 / bframes=12 / b_pyramid=2 / b_adapt=2 / b_bias=0 / direct=3 / weightb=1 / open_gop=0 / weightp=2 / keyint=250 / keyint_min=23 / scenecut=40 / intra_refresh=0 / rc_lookahead=50 / rc=2pass / mbtree=1 / bitrate=2434 / ratetol=1.0 / qcomp=0.70 / qpmin=0 / qpmax=69 / qpstep=4 / cplxblur=20.0 / qblur=0.5 / ip_ratio=1.40 / aq=2:1.50
Language : English
Default : Yes
Forced : No

Audio
ID : 2
Format : AC-3
Format/Info : Audio Coding 3
Commercial name : Dolby Digital
Codec ID : A_AC3
Duration : 1 h 48 min
Bit rate mode : Constant
Bit rate : 448 kb/s
Channel(s) : 6 channels
Channel layout : L R C LFE Ls Rs
Sampling rate : 48.0 kHz
Frame rate : 31.250 FPS (1536 SPF)
Compression mode : Lossy
Stream size : 348 MiB (16%)
Title : MVO_[R5/Лицензия]
Language : Russian
Service kind : Complete Main
Default : Yes
Forced : No

Text #1
ID : 3
Format : UTF-8
Codec ID : S_TEXT/UTF8
Codec ID/Info : UTF-8 Plain Text
Duration : 1 h 44 min
Bit rate : 69 b/s
Count of elements : 1083
Stream size : 53.1 KiB (0%)
Language : Russian
Default : No
Forced : No

Text #2
ID : 4
Format : UTF-8
Codec ID : S_TEXT/UTF8
Codec ID/Info : UTF-8 Plain Text
Duration : 1 h 45 min
Bit rate : 50 b/s
Count of elements : 1291
Stream size : 39.1 KiB (0%)
Language : English
Default : No
Forced : No

Menu
00:00:00.000 : :Глава 1
00:03:07.270 : :Глава 2
00:06:53.580 : :Глава 3
00:10:44.352 : :Глава 4
00:14:29.160 : :Глава 5
00:18:07.461 : :Глава 6
00:20:37.862 : :Глава 7
00:23:17.438 : :Глава 8
00:26:16.658 : :Глава 9
00:29:47.619 : :Глава 10
00:34:11.049 : :Глава 11
00:38:27.388 : :Глава 12
00:44:01.264 : :Глава 13
00:48:00.586 : :Глава 14
00:52:43.285 : :Глава 15
00:56:52.034 : :Глава 16
01:01:35.191 : :Глава 17
01:08:30.481 : :Глава 18
01:15:44.498 : :Глава 19
01:21:53.242 : :Глава 20
01:27:36.167 : :Глава 21
01:32:28.376 : :Глава 22
01:38:15.848 : :Глава 23
01:44:15.791 : :Глава 24


Не забывайте говорить Спасибо. Не уходите с раздачи!   
Торрент: Зарегистрирован [25 мар 2020, 20:47]
Статус:
Проверен
 
.torrent скачан: 248 раз
Хэш: 3d987009d6078e271fd0eb11ed3c88854f133dd5
Размер: 2.19 ГБ (2 346 839 575 байт)
   Стать Автором раздачи
   
Цитата
  • Похожие торренты
    Ответы
    Просмотры
    Последнее сообщение

Вернуться в Зарубежное кино (HDRip, DVDRip)

Кто сейчас на конференции

Сейчас эту тему просматривают: нет зарегистрированных пользователей и гости: 1