Ангелы Чарли / Charlie's Angels (2019) BDRip от OlLanDGroup | Лицензия

 Статистика раздачи 
Размер: 746.31 МБ   |  Зарегистрирован: 25 мар 2020, 16:29   |   .torrent скачан: 110 раз
Сидеров: 21  [ 0 байт/сек ]     Личеров: 17  [ 0 байт/сек ]  
  
Аватара пользователя
Главный редактор
Главный редактор
 
Раздал: 90.01 ТБ
Скачал: 3.78 ТБ
Ратио: 24.248
Сообщения: 288153
Стаж: 9 лет 5 месяцев 3 дня
Откуда: Санкт-Петербург

Информация о фильме
Название: Ангелы Чарли
Оригинальное название: Charlie's Angels
Год выпуска: 2019
Жанр: Боевик, комедия, приключения
Режиссер: Элизабет Бэнкс
В ролях: Кристен Стюарт, Наоми Скотт, Элла Балинска, Сэм Клафлин, Ноа Сентинео, Элизабет Бэнкс, Джимон Хонсу, Патрик Стюарт, Луис Херардо Мендес, Джонатан Такер

О фильме:
Частное детективное агентство Таунсенд, возглавляемое таинственным Чарли, открывает свои офисы по всему миру, и теперь в разных уголках земного шара команды суперпрофессиональных Ангелов под началом Босли обеспечивают покой и безопасность своим клиентам.



Страна: США
Студия: Columbia Pictures, 2.0 Entertainment, Brownstone Productions
Продолжительность: 01:57:53
Перевод: Дублированный | Лицензия BD 4K EUR

Файл
Формат: AVI
Качество: BDRip
Источник: |Charlie's.Angels.2019.BDREMUX.1080p.seleZe|
Видео: 688x288 (2.39:1), 23.976 fps, XviD build 73 ~747 kbps avg, 0.16 bit/pixel
Звук: 48 kHz, MPEG Layer 3, 2 ch, ~128.00 kbps avg
Субтитры: Русские форсированные (отдельно)

Релиз от:

General
Complete name : D:OlLanDGroupCharlie's.Angels.2019.BDRip.745Mb.DUB.OlLanDGroupCharlie's.Angels.2019.BDRip.745Mb.DUB.OlLanDGroup.avi
Format : AVI
Format/Info : Audio Video Interleave
File size : 746 MiB
Duration : 1 h 57 min
Overall bit rate : 885 kb/s
Movie name : Ангелы Чарли / Charlie's Angels (2019) BDRip #Skandar# OlLanDGroup
Writing application : VirtualDubMod 1.5.10.2 (build 2540/release)
Comment : #Skandar# OlLanDGroup

Video
ID : 0
Format : MPEG-4 Visual
Format profile : Advanced Simple@L5
Format settings : BVOP1
Format settings, BVOP : 1
Format settings, QPel : No
Format settings, GMC : No warppoints
Format settings, Matrix : Default (MPEG)
Codec ID : XVID
Codec ID/Hint : XviD
Duration : 1 h 57 min
Bit rate : 748 kb/s
Width : 688 pixels
Height : 288 pixels
Display aspect ratio : 2.40:1
Frame rate : 23.976 (24000/1001) FPS
Color space : YUV
Chroma subsampling : 4:2:0
Bit depth : 8 bits
Scan type : Progressive
Compression mode : Lossy
Bits/(Pixel*Frame) : 0.157
Stream size : 631 MiB (84%)
Writing library : XviD 73

Audio
ID : 1
Format : MPEG Audio
Format version : Version 1
Format profile : Layer 3
Codec ID : 55
Codec ID/Hint : MP3
Duration : 1 h 57 min
Bit rate mode : Constant
Bit rate : 128 kb/s
Channel(s) : 2 channels
Sampling rate : 48.0 kHz
Frame rate : 41.667 FPS (1152 SPF)
Compression mode : Lossy
Stream size : 108 MiB (14%)
Alignment : Aligned on interleaves
Interleave, duration : 42 ms (1.00 video frame)
Interleave, preload duration : 504 ms
Writing library : LAME3.99r
Encoding settings : -m s -V 4 -q 2 -lowpass 17 -b 128


Не забывайте говорить Спасибо. Не уходите с раздачи!   
Торрент: Зарегистрирован [25 мар 2020, 16:29]
Статус:
 
.torrent скачан: 110 раз
Хэш: 20beff5ad859be5e2fedfbba535a5ababe084bbf
Размер: 746.31 МБ (782 565 362 байт)
   Стать Автором раздачи
   
Цитата

Вернуться в Зарубежное кино (HDRip, DVDRip)

Кто сейчас на конференции

Сейчас эту тему просматривают: нет зарегистрированных пользователей и гости: 1