Терминатор: Коллекция / Terminator: Collection (1984-2019) BDRip 1080p

 Статистика раздачи 
Размер: 105.68 ГБ   |  Зарегистрирован: 25 мар 2020, 19:16   |   .torrent скачан: 35 раз
Сидеров: 14  [ 0 байт/сек ]     Личеров: 33  [ 0 байт/сек ]  
  
Аватара пользователя
Главный редактор
Главный редактор
Я на сайте
 
Раздал: 90.01 ТБ
Скачал: 3.78 ТБ
Ратио: 24.248
Сообщения: 288661
Стаж: 9 лет 5 месяцев 7 дней
Откуда: Санкт-Петербург




#77
Терминатор
The Terminator

Год выпуска: 1984
Страна: Великобритания, США
Жанр: фантастика, боевик
Продолжительность: 01:47:26
Перевод: Дубляж, многоголосый закадровый, авторский

Режиссер: Джеймс Кэмерон / James Cameron
В ролях: Арнольд Шварценеггер, Майкл Бин, Линда Хэмилтон, Пол Уинфилд, Лэнс Хенриксен, Рик Россович, Бесс Мотта, Эрл Боэн, Дик Миллер, Шон Шеппс

Описание: История противостояния солдата Кайла Риза и киборга-терминатора, прибывших в 1984-й год из пост-апокалиптического будущего, где миром правят машины-убийцы, а человечество находится на грани вымирания. Цель киборга: убить девушку по имени Сара Коннор, чей ещё нерождённый сын к 2029 году выиграет войну человечества с машинами. Цель Риза: спасти Сару и остановить Терминатора любой ценой.



Гран-При Международного фестиваля фантастических фильмов в Авориазе (Франция) и 3 награды американской Академии научно-фантастических фильмов и фильмов ужасов (в том числе «лучший научно-фантастический фильм»). В 2008 году был включён Библиотекой Конгресса США в список фильмов, признанных культурным достоянием США.

Кодек: H264
Качество: BDRip 1080p
Видео: MPEG-4 AVC, 1920x1040, 18000 Кбит/с, 23.976 fps
Аудио 1: Русский, AC3, 6 ch, 448 Кбит/с Дубляж, Blu-ray CEE
Аудио 2: Русский, AC3, 6 ch, 640 Кбит/с Многоголосый закадровый, DDV
Аудио 3: Русский, AC3, 6 ch, 640 Кбит/с Многоголосый закадровый, Карусель
Аудио 4: Русский, AC3, 6 ch, 640 Кбит/с Многоголосый закадровый, Позитив-Мультимедиа
Аудио 5: Русский, AC3, 6 ch, 640 Кбит/с Многоголосый закадровый, ОРТ
Аудио 6: Русский, AC3, 6 ch, 640 Кбит/с Многоголосый закадровый, Останкино
Аудио 7: Русский, AC3, 6 ch, 384 Кбит/с Многоголосый закадровый, Киномания
Аудио 8: Русский, AC3, 6 ch, 448 Кбит/с Многоголосый закадровый, Гемини
Аудио 9: Русский, АС3, 6 ch, 640 Кбит/с Одноголосый закадровый, А.Гаврилов (новый)
Аудио 10: Русский, АС3, 6 ch, 640 Кбит/с Одноголосый закадровый, Ю.Сербин
Аудио 11: Русский, АС3, 6 ch, 640 Кбит/с Одноголосый закадровый, В.Горчаков
Аудио 12: Русский, АС3, 6 ch, 640 Кбит/с Одноголосый закадровый, Г.Либергал
Аудио 13: Русский, АС3, 6 ch, 640 Кбит/с Одноголосый, закадровый, Д.Пучков
Аудио 14: Русский, АС3, 6 ch, 448 Кбит/с Одноголосый закадровый, В.Дохалов
Аудио 15: Русский, АС3, 2 ch, 192 Кбит/с Одноголосый закадровый, Л.Володарский
Аудио 16: Английский, AC3, 6 ch, 640 Кбит/с Оригинал
Субтитры: Russian (forced), Russian (Blu-ray CEE), Russian (DDV), Russian (Пучков), Russian, English
Главы: Есть





x264 [info]: frame I:874 Avg QP:16.08 size:286148
x264 [info]: frame P:38407 Avg QP:18.15 size:151263
x264 [info]: frame B:115234 Avg QP:19.92 size: 73216

Общее
Уникальный идентификатор : 250096316670618428699146835283675181194 (0xBC26CC6C2DFA2386916688D8B77FF08A)
Полное имя : I:Терминатор Коллекция1 Терминатор 1984г.mkv
Формат : Matroska
Версия формата : Version 2
Размер файла : 20,1 Гбайт
Продолжительность : 1 ч. 47 м.
Общий поток : 26,8 Мбит/сек
Название фильма : Терминатор 1984г.
Дата кодирования : UTC 2020-01-26 17:36:58
Программа кодирования : mkvmerge v5.8.0 ('No Sleep / Pillow') built on Sep 2 2012 15:37:04
Библиотека кодирования : libebml v1.2.3 + libmatroska v1.3.0
Обложка : Yes
Attachments : cover.jpg

Видео
Идентификатор : 1
Формат : AVC
Формат/Информация : Advanced Video Codec
Профиль формата : High@L4.1
Настройки формата : CABAC / 4 Ref Frames
Параметр CABAC формата : Да
Параметр RefFrames формата : 4 кадра
Идентификатор кодека : V_MPEG4/ISO/AVC
Продолжительность : 1 ч. 47 м.
Битрейт : 18,0 Мбит/сек
Ширина : 1920 пикселей
Высота : 1040 пикселей
Соотношение сторон : 1,85:1
Режим частоты кадров : Постоянный
Частота кадров : 23,976 (24000/1001) кадра/сек
Цветовое пространство : YUV
Субдискретизация насыщенности : 4:2:0
Битовая глубина : 8 бит
Тип развёртки : Прогрессивная
Бит/(Пиксели*Кадры) : 0.376
Размер потока : 13,1 Гбайт (65%)
Библиотека кодирования : x264 core 152 r2851kMod ba24899
Настройки программы : cabac=1 / ref=4 / deblock=1:-3:-3 / analyse=0x3:0x113 / me=umh / subme=11 / psy=1 / fade_compensate=0.00 / psy_rd=1.00:0.00 / mixed_ref=1 / me_range=48 / chroma_me=1 / trellis=2 / 8x8dct=1 / cqm=0 / deadzone=21,11 / fast_pskip=0 / chroma_qp_offset=-2 / threads=12 / lookahead_threads=2 / sliced_threads=0 / nr=0 / decimate=0 / interlaced=0 / bluray_compat=0 / constrained_intra=0 / bframes=9 / b_pyramid=2 / b_adapt=2 / b_bias=0 / direct=3 / weightb=1 / open_gop=0 / weightp=2 / keyint=240 / keyint_min=23 / scenecut=40 / intra_refresh=0 / rc_lookahead=40 / rc=2pass / mbtree=0 / bitrate=18000 / ratetol=1.0 / qcomp=0.60 / qpmin=0 / qpmax=39 / qpstep=4 / cplxblur=20.0 / qblur=0.5 / vbv_maxrate=50000 / vbv_bufsize=62500 / nal_hrd=none / filler=0 / ip_ratio=1.25 / pb_ratio=1.30 / aq=1:0.90
Язык : English
Default : Да
Forced : Нет
Цветовой диапазон : Limited
Основные цвета : BT.709
Характеристики трансфера : BT.709
Коэффициенты матрицы : BT.709

Аудио #1
Идентификатор : 2
Формат : AC-3
Формат/Информация : Audio Coding 3
Параметр Endianness формата : Big
Идентификатор кодека : A_AC3
Продолжительность : 1 ч. 47 м.
Вид битрейта : Постоянный
Битрейт : 448 Кбит/сек
Каналы : 6 каналов
Расположение каналов : Front: L C R, Side: L R, LFE
Частота : 48,0 КГц
Частота кадров : 31,250 кадров/сек (1536 SPF)
Битовая глубина : 16 бит
Метод сжатия : С потерями
Размер потока : 344 Мбайт (2%)
Заголовок : Дубляж, Blu-ray CEE
Язык : Russian
Default : Да
Forced : Нет

Аудио #2
Идентификатор : 3
Формат : AC-3
Формат/Информация : Audio Coding 3
Параметр Endianness формата : Big
Идентификатор кодека : A_AC3
Продолжительность : 1 ч. 47 м.
Вид битрейта : Постоянный
Битрейт : 640 Кбит/сек
Каналы : 6 каналов
Расположение каналов : Front: L C R, Side: L R, LFE
Частота : 48,0 КГц
Частота кадров : 31,250 кадров/сек (1536 SPF)
Битовая глубина : 16 бит
Метод сжатия : С потерями
Размер потока : 492 Мбайт (2%)
Заголовок : Многоголосый закадровый, DDV
Язык : Russian
Default : Нет
Forced : Нет

Аудио #3
Идентификатор : 4
Формат : AC-3
Формат/Информация : Audio Coding 3
Параметр Endianness формата : Big
Идентификатор кодека : A_AC3
Продолжительность : 1 ч. 47 м.
Вид битрейта : Постоянный
Битрейт : 640 Кбит/сек
Каналы : 6 каналов
Расположение каналов : Front: L C R, Side: L R, LFE
Частота : 48,0 КГц
Частота кадров : 31,250 кадров/сек (1536 SPF)
Битовая глубина : 16 бит
Метод сжатия : С потерями
Размер потока : 492 Мбайт (2%)
Заголовок : Многоголосый закадровый, Карусель
Язык : Russian
Default : Нет
Forced : Нет

Аудио #4
Идентификатор : 5
Формат : AC-3
Формат/Информация : Audio Coding 3
Параметр Endianness формата : Big
Идентификатор кодека : A_AC3
Продолжительность : 1 ч. 47 м.
Вид битрейта : Постоянный
Битрейт : 640 Кбит/сек
Каналы : 6 каналов
Расположение каналов : Front: L C R, Side: L R, LFE
Частота : 48,0 КГц
Частота кадров : 31,250 кадров/сек (1536 SPF)
Битовая глубина : 16 бит
Метод сжатия : С потерями
Размер потока : 492 Мбайт (2%)
Заголовок : Многоголосый закадровый, Позитив-Мультимедиа
Язык : Russian
Default : Нет
Forced : Нет

Аудио #5
Идентификатор : 6
Формат : AC-3
Формат/Информация : Audio Coding 3
Параметр Endianness формата : Big
Идентификатор кодека : A_AC3
Продолжительность : 1 ч. 47 м.
Вид битрейта : Постоянный
Битрейт : 640 Кбит/сек
Каналы : 6 каналов
Расположение каналов : Front: L C R, Side: L R, LFE
Частота : 48,0 КГц
Частота кадров : 31,250 кадров/сек (1536 SPF)
Битовая глубина : 16 бит
Метод сжатия : С потерями
Размер потока : 492 Мбайт (2%)
Заголовок : Многоголосый закадровый, ОРТ
Язык : Russian
Default : Нет
Forced : Нет

Аудио #6
Идентификатор : 7
Формат : AC-3
Формат/Информация : Audio Coding 3
Параметр Endianness формата : Big
Идентификатор кодека : A_AC3
Продолжительность : 1 ч. 47 м.
Вид битрейта : Постоянный
Битрейт : 640 Кбит/сек
Каналы : 6 каналов
Расположение каналов : Front: L C R, Side: L R, LFE
Частота : 48,0 КГц
Частота кадров : 31,250 кадров/сек (1536 SPF)
Битовая глубина : 16 бит
Метод сжатия : С потерями
Размер потока : 492 Мбайт (2%)
Заголовок : Многоголосый закадровый, Останкино
Язык : Russian
Default : Нет
Forced : Нет

Аудио #7
Идентификатор : 8
Формат : AC-3
Формат/Информация : Audio Coding 3
Параметр Endianness формата : Big
Идентификатор кодека : A_AC3
Продолжительность : 1 ч. 47 м.
Вид битрейта : Постоянный
Битрейт : 384 Кбит/сек
Каналы : 6 каналов
Расположение каналов : Front: L C R, Side: L R, LFE
Частота : 48,0 КГц
Частота кадров : 31,250 кадров/сек (1536 SPF)
Битовая глубина : 16 бит
Метод сжатия : С потерями
Размер потока : 295 Мбайт (1%)
Заголовок : Многоголосый закадровый, Киномания
Язык : Russian
Default : Нет
Forced : Нет

Аудио #8
Идентификатор : 9
Формат : AC-3
Формат/Информация : Audio Coding 3
Параметр Endianness формата : Big
Идентификатор кодека : A_AC3
Продолжительность : 1 ч. 47 м.
Вид битрейта : Постоянный
Битрейт : 448 Кбит/сек
Каналы : 6 каналов
Расположение каналов : Front: L C R, Side: L R, LFE
Частота : 48,0 КГц
Частота кадров : 31,250 кадров/сек (1536 SPF)
Битовая глубина : 16 бит
Метод сжатия : С потерями
Размер потока : 344 Мбайт (2%)
Заголовок : Многоголосый закадровый, Гемини
Язык : Russian
Default : Нет
Forced : Нет

Аудио #9
Идентификатор : 10
Формат : AC-3
Формат/Информация : Audio Coding 3
Параметр Endianness формата : Big
Идентификатор кодека : A_AC3
Продолжительность : 1 ч. 47 м.
Вид битрейта : Постоянный
Битрейт : 640 Кбит/сек
Каналы : 6 каналов
Расположение каналов : Front: L C R, Side: L R, LFE
Частота : 48,0 КГц
Частота кадров : 31,250 кадров/сек (1536 SPF)
Битовая глубина : 16 бит
Метод сжатия : С потерями
Размер потока : 492 Мбайт (2%)
Заголовок : Одноголосый закадровый, А.Гаврилов (новый)
Язык : Russian
Default : Нет
Forced : Нет

Аудио #10
Идентификатор : 11
Формат : AC-3
Формат/Информация : Audio Coding 3
Параметр Endianness формата : Big
Идентификатор кодека : A_AC3
Продолжительность : 1 ч. 47 м.
Вид битрейта : Постоянный
Битрейт : 640 Кбит/сек
Каналы : 6 каналов
Расположение каналов : Front: L C R, Side: L R, LFE
Частота : 48,0 КГц
Частота кадров : 31,250 кадров/сек (1536 SPF)
Битовая глубина : 16 бит
Метод сжатия : С потерями
Размер потока : 492 Мбайт (2%)
Заголовок : Одноголосый закадровый, Ю.Сербин
Язык : Russian
Default : Нет
Forced : Нет

Аудио #11
Идентификатор : 12
Формат : AC-3
Формат/Информация : Audio Coding 3
Параметр Endianness формата : Big
Идентификатор кодека : A_AC3
Продолжительность : 1 ч. 47 м.
Вид битрейта : Постоянный
Битрейт : 640 Кбит/сек
Каналы : 6 каналов
Расположение каналов : Front: L C R, Side: L R, LFE
Частота : 48,0 КГц
Частота кадров : 31,250 кадров/сек (1536 SPF)
Битовая глубина : 16 бит
Метод сжатия : С потерями
Размер потока : 492 Мбайт (2%)
Заголовок : Одноголосый закадровый, В.Горчаков
Язык : Russian
Default : Нет
Forced : Нет

Аудио #12
Идентификатор : 13
Формат : AC-3
Формат/Информация : Audio Coding 3
Параметр Endianness формата : Big
Идентификатор кодека : A_AC3
Продолжительность : 1 ч. 47 м.
Вид битрейта : Постоянный
Битрейт : 640 Кбит/сек
Каналы : 6 каналов
Расположение каналов : Front: L C R, Side: L R, LFE
Частота : 48,0 КГц
Частота кадров : 31,250 кадров/сек (1536 SPF)
Битовая глубина : 16 бит
Метод сжатия : С потерями
Размер потока : 492 Мбайт (2%)
Заголовок : Одноголосый закадровый, Г.Либергал
Язык : Russian
Default : Нет
Forced : Нет

Аудио #13
Идентификатор : 14
Формат : AC-3
Формат/Информация : Audio Coding 3
Параметр Endianness формата : Big
Идентификатор кодека : A_AC3
Продолжительность : 1 ч. 47 м.
Вид битрейта : Постоянный
Битрейт : 640 Кбит/сек
Каналы : 6 каналов
Расположение каналов : Front: L C R, Side: L R, LFE
Частота : 48,0 КГц
Частота кадров : 31,250 кадров/сек (1536 SPF)
Битовая глубина : 16 бит
Метод сжатия : С потерями
Размер потока : 492 Мбайт (2%)
Заголовок : Одноголосый, закадровый, Д.Пучков
Язык : Russian
Default : Нет
Forced : Нет

Аудио #14
Идентификатор : 15
Формат : AC-3
Формат/Информация : Audio Coding 3
Параметр Endianness формата : Big
Идентификатор кодека : A_AC3
Продолжительность : 1 ч. 47 м.
Вид битрейта : Постоянный
Битрейт : 448 Кбит/сек
Каналы : 6 каналов
Расположение каналов : Front: L C R, Side: L R, LFE
Частота : 48,0 КГц
Частота кадров : 31,250 кадров/сек (1536 SPF)
Битовая глубина : 16 бит
Метод сжатия : С потерями
Размер потока : 344 Мбайт (2%)
Заголовок : Одноголосый закадровый, В.Дохалов
Язык : Russian
Default : Нет
Forced : Нет

Аудио #15
Идентификатор : 16
Формат : AC-3
Формат/Информация : Audio Coding 3
Параметр Endianness формата : Big
Идентификатор кодека : A_AC3
Продолжительность : 1 ч. 47 м.
Вид битрейта : Постоянный
Битрейт : 192 Кбит/сек
Каналы : 2 канала
Расположение каналов : Front: L R
Частота : 48,0 КГц
Частота кадров : 31,250 кадров/сек (1536 SPF)
Битовая глубина : 16 бит
Метод сжатия : С потерями
Размер потока : 148 Мбайт (1%)
Заголовок : Одноголосый закадровый, Л. Володарский
Язык : Russian
Default : Нет
Forced : Нет

Аудио #16
Идентификатор : 17
Формат : AC-3
Формат/Информация : Audio Coding 3
Параметр Endianness формата : Big
Идентификатор кодека : A_AC3
Продолжительность : 1 ч. 47 м.
Вид битрейта : Постоянный
Битрейт : 640 Кбит/сек
Каналы : 6 каналов
Расположение каналов : Front: L C R, Side: L R, LFE
Частота : 48,0 КГц
Частота кадров : 31,250 кадров/сек (1536 SPF)
Битовая глубина : 16 бит
Метод сжатия : С потерями
Размер потока : 492 Мбайт (2%)
Заголовок : Оригинал
Язык : English
Default : Нет
Forced : Нет

Текст #1
Идентификатор : 17
Формат : UTF-8
Идентификатор кодека : S_TEXT/UTF8
Идентификатор кодека/Информация : UTF-8 Plain Text
Заголовок : forced
Язык : Russian
Default : Да
Forced : Нет

Текст #2
Идентификатор : 18
Формат : UTF-8
Идентификатор кодека : S_TEXT/UTF8
Идентификатор кодека/Информация : UTF-8 Plain Text
Заголовок : Blu-ray CEE
Язык : Russian
Default : Нет
Forced : Нет

Текст #3
Идентификатор : 19
Формат : UTF-8
Идентификатор кодека : S_TEXT/UTF8
Идентификатор кодека/Информация : UTF-8 Plain Text
Заголовок : Пучков
Язык : Russian
Default : Нет
Forced : Нет

Текст #4
Идентификатор : 20
Формат : UTF-8
Идентификатор кодека : S_TEXT/UTF8
Идентификатор кодека/Информация : UTF-8 Plain Text
Заголовок : DDV
Язык : Russian
Default : Нет
Forced : Нет

Текст #5
Идентификатор : 21
Формат : UTF-8
Идентификатор кодека : S_TEXT/UTF8
Идентификатор кодека/Информация : UTF-8 Plain Text
Язык : Russian
Default : Нет
Forced : Нет

Текст #6
Идентификатор : 22
Формат : UTF-8
Идентификатор кодека : S_TEXT/UTF8
Идентификатор кодека/Информация : UTF-8 Plain Text
Язык : English
Default : Нет
Forced : Нет

Меню
00:00:00.000 : en:2029 a.D./Main Title
00:03:32.253 : en:The Arrival
00:05:18.151 : en:New Wardrobe
00:06:31.015 : en:Second Visitor
00:11:38.322 : en:Hard-Working Girl
00:13:45.324 : en:Gun Men
00:15:11.827 : en:"Sarah Connor?"
00:20:44.618 : en:Phone Book Rampage
00:22:49.618 : en:Last One Left
00:29:49.787 : en:Uninvited Guest
00:33:15.034 : en:The Last Day of Disco
00:38:47.116 : en:Running Commentary
00:41:25.191 : en:The Possible Future
00:47:46.488 : en:"Drive!"
00:50:39.995 : en:Safety in Uniforms
00:54:41.569 : en:Self-Service
00:59:04.916 : en:I'll Be Back!"
01:03:53.538 : en:Mother of the Future
01:09:37.548 : en:The War to Come
01:14:08.986 : en:Answering Machine
01:15:00.078 : en:Not Mom
01:17:18.800 : en:Recipe for Disaster
01:18:30.372 : en:Present for the Future
01:23:00.892 : en:Hot Pursuit
01:26:24.721 : en:Run Over By a Truck
01:30:22.583 : en:Hunk O' Burning Steel
01:32:19.367 : en:Factory Foolery
01:35:52.121 : en:Head Without Heels
01:39:53.862 : en:Survivor
01:40:18.721 : en:Tapes for John
01:40:49.334 : en:A Storm Is Coming
01:43:12.895 : en:End Credits


#77
Терминатор 2: Судный День
Terminator 2: Judgment Day

Год выпуска: 1991
Страна: США, Франция
Жанр: Фэнтастика, боевик, триллер
Продолжительность: 02:33:25
Перевод: Многоголосый закадровый, авторский

Режиссер: Джеймс Кэмерон / James Cameron
В ролях: Арнольд Шварценеггер, Линда Хэмилтон, Эдвард Ферлонг, Роберт Патрик, Эрл Боэн, Джо Мортон, С. Эпата Меркерсон, Кастуло Гуерра, Danny Cooksey, Дженет Голдштейн, Ксандер Беркли, Leslie Hamilton Gearren, Ken Gibbel, Robert Winley, Питер Шрум, Шэйн Уайлдер, Майкл Эдвардс, Jared Lounsbery, Кэйси Чавез, Ennalls Berl, Дон Лэйк

Описание: Прошло более десяти лет с тех пор, как киборг-терминатор из 2029 года пытался уничтожить Сару Коннор — женщину, чей будущий сын выиграет войну человечества против машин.
Теперь у Сары родился сын Джон и время, когда он поведёт за собой выживших людей на борьбу с машинами, неумолимо приближается. Именно в этот момент из пост-апокалиптического будущего прибывает новый терминатор — практически неуязвимый и способный принимать любое обличие. Цель нового терминатора уже не Сара, а уничтожение молодого Джона Коннора.
Однако, шансы Джона на спасение существенно повышаются, когда на помощь приходит перепрограммированный сопротивлением терминатор предыдущего поколения. Оба киборга вступают в смертельный бой, от исхода которого зависит судьба человечества.



Обладатель 4 премий «ОСКАР» за Лучший звук, Лучший монтаж звука, Лучшие визуальные эффекты и Лучший грим, 1992г.

Кодек: H264
Качество: BDRip 1080p
Видео: MPEG-4 AVC, 1920x816, 16400 Кбит/с, 23.976 fps
Аудио 1: Русский, AC3, 6 ch, 640 Кбит/с Многоголосый закадровый, Позитив-Мультимедиа
Аудио 2: Русский, AC3, 6 ch, 640 Кбит/с Многоголосый закадровый, Киномания
Аудио 3: Русский, AC3, 6 ch, 448 Кбит/с Многоголосый закадровый, CP Digital
Аудио 4: Русский, AC3, 6 ch, 448 Кбит/с Многоголосый закадровый, Селена Интернешнл-ОРТ
Аудио 5: Русский, AC3, 6 ch, 448 Кбит/с Многоголосый закадровый, ТВ-6
Аудио 6: Русский, АС3, 6 ch, 640 Кбит/с Одноголосый закадровый, А.Гаврилов
Аудио 7: Русский, АС3, 6 ch, 640 Кбит/с Одноголосый закадровый, Ю. Живов
Аудио 8: Русский, АС3, 6 ch, 640 Кбит/с Одноголосый, закадровый, В.Горчаков
Аудио 9: Русский, АС3, 6 ch, 640 Кбит/с Одноголосый закадровый, Д.Пучков
Аудио 10: Русский, АС3, 6 ch, 640 Кбит/с Одноголосый закадровый, Д.Есарев
Аудио 11: Русский, AC3, 6 ch, 448 Кбит/с Одноголосый закадровый, М. Чадов
Аудио 12: Английский, AC3, 6 ch, 640 Кбит/с Оригинал
Субтитры: Русские, английские
Главы: Есть

ЦитатаКто-то писал:
Дорожка Д.Есарева от Переулка Переводмана доступна благодаря mv73, душевно предоставил seregaanarhist
перевод М.Чадова доступен благодаря: podorov92





x264 [info]: frame I:1325 Avg QP:14.78 size:232637
x264 [info]: frame P:62048 Avg QP:16.84 size:130691
x264 [info]: frame B:157370 Avg QP:18.60 size: 66434

Общее
Уникальный идентификатор : 196722974203688194993748851226725840490 (0x93FF7778212443478014FDA846BFF66A)
Полное имя : I:Терминатор Коллекция2 Терминатор 2 Судный день 1991г.mkv
Формат : Matroska
Версия формата : Version 2
Размер файла : 25,0 Гбайт
Продолжительность : 2 ч. 33 м.
Общий поток : 23,3 Мбит/сек
Название фильма : Терминатор 2: Судный день 1991г.
Дата кодирования : UTC 2020-03-25 12:20:36
Программа кодирования : mkvmerge v5.8.0 ('No Sleep / Pillow') built on Sep 2 2012 15:37:04
Библиотека кодирования : libebml v1.2.3 + libmatroska v1.3.0

Видео
Идентификатор : 1
Формат : AVC
Формат/Информация : Advanced Video Codec
Профиль формата : High@L4.1
Настройки формата : CABAC / 5 Ref Frames
Параметр CABAC формата : Да
Параметр RefFrames формата : 5 кадров
Идентификатор кодека : V_MPEG4/ISO/AVC
Продолжительность : 2 ч. 33 м.
Битрейт : 16,4 Мбит/сек
Ширина : 1920 пикселей
Высота : 816 пикселей
Соотношение сторон : 2,35:1
Режим частоты кадров : Постоянный
Частота кадров : 23,976 (24000/1001) кадра/сек
Цветовое пространство : YUV
Субдискретизация насыщенности : 4:2:0
Битовая глубина : 8 бит
Тип развёртки : Прогрессивная
Бит/(Пиксели*Кадры) : 0.437
Размер потока : 17,1 Гбайт (68%)
Библиотека кодирования : x264 core 152 r2851kMod ba24899
Настройки программы : cabac=1 / ref=5 / deblock=1:-3:-3 / analyse=0x3:0x113 / me=umh / subme=11 / psy=1 / fade_compensate=0.00 / psy_rd=1.00:0.00 / mixed_ref=1 / me_range=48 / chroma_me=1 / trellis=2 / 8x8dct=1 / cqm=0 / deadzone=21,11 / fast_pskip=0 / chroma_qp_offset=-2 / threads=12 / lookahead_threads=2 / sliced_threads=0 / nr=0 / decimate=0 / interlaced=0 / bluray_compat=0 / constrained_intra=0 / bframes=9 / b_pyramid=2 / b_adapt=2 / b_bias=0 / direct=3 / weightb=1 / open_gop=0 / weightp=2 / keyint=240 / keyint_min=23 / scenecut=40 / intra_refresh=0 / rc_lookahead=40 / rc=2pass / mbtree=0 / bitrate=16400 / ratetol=1.0 / qcomp=0.60 / qpmin=0 / qpmax=39 / qpstep=4 / cplxblur=20.0 / qblur=0.5 / vbv_maxrate=50000 / vbv_bufsize=62500 / nal_hrd=none / filler=0 / ip_ratio=1.25 / pb_ratio=1.30 / aq=1:0.90
Язык : English
Default : Да
Forced : Нет
Цветовой диапазон : Limited
Основные цвета : BT.709
Характеристики трансфера : BT.709
Коэффициенты матрицы : BT.709

Аудио #1
Идентификатор : 2
Формат : AC-3
Формат/Информация : Audio Coding 3
Параметр Endianness формата : Big
Идентификатор кодека : A_AC3
Продолжительность : 2 ч. 33 м.
Вид битрейта : Постоянный
Битрейт : 640 Кбит/сек
Каналы : 6 каналов
Расположение каналов : Front: L C R, Side: L R, LFE
Частота : 48,0 КГц
Частота кадров : 31,250 кадров/сек (1536 SPF)
Битовая глубина : 16 бит
Метод сжатия : С потерями
Размер потока : 702 Мбайт (3%)
Заголовок : Многоголосый закадровый, Позитив-Мультимедиа
Язык : Russian
Default : Да
Forced : Нет

Аудио #2
Идентификатор : 3
Формат : AC-3
Формат/Информация : Audio Coding 3
Параметр Endianness формата : Big
Идентификатор кодека : A_AC3
Продолжительность : 2 ч. 33 м.
Вид битрейта : Постоянный
Битрейт : 640 Кбит/сек
Каналы : 6 каналов
Расположение каналов : Front: L C R, Side: L R, LFE
Частота : 48,0 КГц
Частота кадров : 31,250 кадров/сек (1536 SPF)
Битовая глубина : 16 бит
Метод сжатия : С потерями
Размер потока : 702 Мбайт (3%)
Заголовок : Многоголосый закадровый, Киномания
Язык : Russian
Default : Нет
Forced : Нет

Аудио #3
Идентификатор : 4
Формат : AC-3
Формат/Информация : Audio Coding 3
Параметр Endianness формата : Big
Идентификатор кодека : A_AC3
Продолжительность : 2 ч. 33 м.
Вид битрейта : Постоянный
Битрейт : 448 Кбит/сек
Каналы : 6 каналов
Расположение каналов : Front: L C R, Side: L R, LFE
Частота : 48,0 КГц
Частота кадров : 31,250 кадров/сек (1536 SPF)
Битовая глубина : 16 бит
Метод сжатия : С потерями
Размер потока : 492 Мбайт (2%)
Заголовок : Многоголосый закадровый, CP Digital
Язык : Russian
Default : Нет
Forced : Нет

Аудио #4
Идентификатор : 5
Формат : AC-3
Формат/Информация : Audio Coding 3
Параметр Endianness формата : Big
Идентификатор кодека : A_AC3
Продолжительность : 2 ч. 33 м.
Вид битрейта : Постоянный
Битрейт : 448 Кбит/сек
Каналы : 6 каналов
Расположение каналов : Front: L C R, Side: L R, LFE
Частота : 48,0 КГц
Частота кадров : 31,250 кадров/сек (1536 SPF)
Битовая глубина : 16 бит
Метод сжатия : С потерями
Размер потока : 492 Мбайт (2%)
Заголовок : Многоголосый закадровый, Селена Интернешнл-ОРТ
Язык : Russian
Default : Нет
Forced : Нет

Аудио #5
Идентификатор : 6
Формат : AC-3
Формат/Информация : Audio Coding 3
Параметр Endianness формата : Big
Идентификатор кодека : A_AC3
Продолжительность : 2 ч. 33 м.
Вид битрейта : Постоянный
Битрейт : 448 Кбит/сек
Каналы : 6 каналов
Расположение каналов : Front: L C R, Side: L R, LFE
Частота : 48,0 КГц
Частота кадров : 31,250 кадров/сек (1536 SPF)
Битовая глубина : 16 бит
Метод сжатия : С потерями
Размер потока : 492 Мбайт (2%)
Заголовок : Многоголосый закадровый, ТВ-6
Язык : Russian
Default : Нет
Forced : Нет

Аудио #6
Идентификатор : 7
Формат : AC-3
Формат/Информация : Audio Coding 3
Параметр Endianness формата : Big
Идентификатор кодека : A_AC3
Продолжительность : 2 ч. 33 м.
Вид битрейта : Постоянный
Битрейт : 640 Кбит/сек
Каналы : 6 каналов
Расположение каналов : Front: L C R, Side: L R, LFE
Частота : 48,0 КГц
Частота кадров : 31,250 кадров/сек (1536 SPF)
Битовая глубина : 16 бит
Метод сжатия : С потерями
Размер потока : 702 Мбайт (3%)
Заголовок : Одноголосый закадровый, А.Гаврилов
Язык : Russian
Default : Нет
Forced : Нет

Аудио #7
Идентификатор : 8
Формат : AC-3
Формат/Информация : Audio Coding 3
Параметр Endianness формата : Big
Идентификатор кодека : A_AC3
Продолжительность : 2 ч. 33 м.
Вид битрейта : Постоянный
Битрейт : 640 Кбит/сек
Каналы : 6 каналов
Расположение каналов : Front: L C R, Side: L R, LFE
Частота : 48,0 КГц
Частота кадров : 31,250 кадров/сек (1536 SPF)
Битовая глубина : 16 бит
Метод сжатия : С потерями
Размер потока : 702 Мбайт (3%)
Заголовок : Одноголосый закадровый, Ю. Живов
Язык : Russian
Default : Нет
Forced : Нет

Аудио #8
Идентификатор : 9
Формат : AC-3
Формат/Информация : Audio Coding 3
Параметр Endianness формата : Big
Идентификатор кодека : A_AC3
Продолжительность : 2 ч. 33 м.
Вид битрейта : Постоянный
Битрейт : 640 Кбит/сек
Каналы : 6 каналов
Расположение каналов : Front: L C R, Side: L R, LFE
Частота : 48,0 КГц
Частота кадров : 31,250 кадров/сек (1536 SPF)
Битовая глубина : 16 бит
Метод сжатия : С потерями
Размер потока : 702 Мбайт (3%)
Заголовок : Одноголосый, закадровый, В.Горчаков
Язык : Russian
Default : Нет
Forced : Нет

Аудио #9
Идентификатор : 10
Формат : AC-3
Формат/Информация : Audio Coding 3
Параметр Endianness формата : Big
Идентификатор кодека : A_AC3
Продолжительность : 2 ч. 33 м.
Вид битрейта : Постоянный
Битрейт : 640 Кбит/сек
Каналы : 6 каналов
Расположение каналов : Front: L C R, Side: L R, LFE
Частота : 48,0 КГц
Частота кадров : 31,250 кадров/сек (1536 SPF)
Битовая глубина : 16 бит
Метод сжатия : С потерями
Размер потока : 702 Мбайт (3%)
Заголовок : Одноголосый закадровый, Д.Пучков
Язык : Russian
Default : Нет
Forced : Нет

Аудио #10
Идентификатор : 11
Формат : AC-3
Формат/Информация : Audio Coding 3
Параметр Endianness формата : Big
Идентификатор кодека : A_AC3
Продолжительность : 2 ч. 33 м.
Вид битрейта : Постоянный
Битрейт : 640 Кбит/сек
Каналы : 6 каналов
Расположение каналов : Front: L C R, Side: L R, LFE
Частота : 48,0 КГц
Частота кадров : 31,250 кадров/сек (1536 SPF)
Битовая глубина : 16 бит
Метод сжатия : С потерями
Размер потока : 702 Мбайт (3%)
Заголовок : Одноголосый закадровый, Д.Есарев
Язык : Russian
Default : Нет
Forced : Нет

Аудио #11
Идентификатор : 12
Формат : AC-3
Формат/Информация : Audio Coding 3
Параметр Endianness формата : Big
Идентификатор кодека : A_AC3
Продолжительность : 2 ч. 33 м.
Вид битрейта : Постоянный
Битрейт : 448 Кбит/сек
Каналы : 6 каналов
Расположение каналов : Front: L C R, Side: L R, LFE
Частота : 48,0 КГц
Частота кадров : 31,250 кадров/сек (1536 SPF)
Битовая глубина : 16 бит
Метод сжатия : С потерями
Размер потока : 492 Мбайт (2%)
Заголовок : Одноголосый закадровый, М. Чадов
Язык : Russian
Default : Нет
Forced : Нет

Аудио #12
Идентификатор : 13
Формат : AC-3
Формат/Информация : Audio Coding 3
Параметр Endianness формата : Big
Идентификатор кодека : A_AC3
Продолжительность : 2 ч. 33 м.
Вид битрейта : Постоянный
Битрейт : 640 Кбит/сек
Каналы : 6 каналов
Расположение каналов : Front: L C R, Side: L R, LFE
Частота : 48,0 КГц
Частота кадров : 31,250 кадров/сек (1536 SPF)
Битовая глубина : 16 бит
Метод сжатия : С потерями
Размер потока : 702 Мбайт (3%)
Заголовок : Оригинал
Язык : English
Default : Нет
Forced : Нет

Текст #1
Идентификатор : 14
Формат : UTF-8
Идентификатор кодека : S_TEXT/UTF8
Идентификатор кодека/Информация : UTF-8 Plain Text
Язык : Russian
Default : Нет
Forced : Нет

Текст #2
Идентификатор : 15
Формат : UTF-8
Идентификатор кодека : S_TEXT/UTF8
Идентификатор кодека/Информация : UTF-8 Plain Text
Язык : English
Default : Нет
Forced : Нет

Меню
00:00:00.000 : en:Prologue
00:00:50.091 : en:Future War
00:03:36.299 : en:Maint Titles
00:05:34.959 : en:A Terminator Arrives
00:06:46.405 : en:Biker Bar
00:09:09.215 : en:Bad to the Bone
00:10:31.547 : en:T-1000 Arrives
00:12:29.498 : en:Meet John Conner
00:13:37.107 : en:Sarah Conner
00:15:29.720 : en:Ain't No Trouble
00:16:29.887 : en:T-1000 Visits Voights
00:17:39.272 : en:Easy Money
00:19:10.101 : en:Not Much Time Time Left in the World
00:22:27.173 : en:Sanity Review
00:25:54.405 : en:Cyberdyne Systems
00:27:27.915 : en:Model Citizen
00:28:51.123 : en:Target Acquired
00:29:44.593 : en:The Galleria
00:31:20.981 : en:Zeroed in the Corridor
00:33:57.513 : en:In the Streets
00:35:08.167 : en:Canal Chase
00:38:48.261 : en:Time Out
00:41:31.432 : en:Never This Nice
00:44:14.041 : en:T-1000's Search
00:44:43.904 : en:Photos
00:45:59.260 : en:Mission Parameters
00:49:45.820 : en:Pescadero State Hospital
00:52:57.303 : en:Lewis the Guard
00:54:41.865 : en:Sarah Breaks Out
00:56:19.505 : en:215 Bones
00:57:02.881 : en:I Swear
00:58:11.867 : en:A Syringe-Point
01:00:21.788 : en:"Come with Me If You Want to Live"
01:01:49.251 : en:Escape From Pescadero
01:06:22.482 : en:Security Car
01:07:57.744 : en:Nice Bike
01:08:38.660 : en:Night Repairs
01:10:01.522 : en:Resetting the Switch
01:13:27.748 : en:Heading South
01:14:06.286 : en:No Problemo
01:14:56.044 : en:Smile?
01:16:24.036 : en:Detailed Files
01:18:46.315 : en:Meet the Pilot
01:21:06.830 : en:Salceda's Camp
01:23:36.377 : en:Weapons Cache
01:26:22.901 : en:Fathers and Sons
01:30:43.142 : en:Nuclear Nightmare
01:33:00.112 : en:Sarah's Decision
01:33:30.392 : en:No Fate
01:35:13.469 : en:Sarah's Solution
01:41:32.795 : en:Changing the Way It Goes
01:44:21.839 : en:Target: Cyberdyne
01:46:23.336 : en:All the Way
01:48:23.456 : en:T-1000 at Dyson's
01:49:03.099 : en:A Lot of Years
01:49:53.691 : en:Company
01:52:01.806 : en:Terminator Serves Notice
01:53:50.999 : en:In the Vault
01:54:23.531 : en:S.W.A.T. Offensive
01:56:44.672 : en:Death of Dyson and Cyberdyne
01:58:15.930 : en:"I'll Be Back"
01:59:56.114 : en:Borrowing the S.W.A.T. Van
02:01:08.728 : en:T-1000 Acquires a Helicopter
02:02:07.328 : en:Freeway Chase
02:04:46.278 : en:Tanker Chase
02:08:51.065 : en:Fire and Ice
02:12:20.339 : en:Glitching
02:12:59.670 : en:Sticking Together
02:13:32.828 : en:Hand to Hand
02:14:42.564 : en:Deepter Into the Steel Mill
02:15:17.683 : en:Sarahs' Stand
02:17:14.133 : en:Terminator Skewered
02:19:13.961 : en:Sarah and John
02:19:46.576 : en:Alternate Power
02:20:22.404 : en:Two Sarah's
02:21:53.037 : en:Terminated
02:24:06.253 : en:One More Chip
02:27:57.234 : en:The Unknown Future
02:28:39.902 : en:End Titles
02:28:54.477 : en:Restoration Credits


#77
Терминатор 3: Восстание машин
Terminator 3: Rise of the Machines

Год выпуска: 2003
Страна: США, Германия, Великобритания
Жанр: Фантастика, боевик, триллер
Продолжительность: 01:49:06
Перевод: Дубляж, многоголосый закадровый, авторский

Режиссер: Джонатан Мостоу / Jonathan Mostow
В ролях: Арнольд Шварценеггер, Ник Сталь, Клер Дэйнс, Кристанна Локен, Дэвид Эндрюс, Марк Фамиглетти, Эрл Боэн, Мойра Харрис, Чоппер Бернет, Кристофер Лоуфорд, Кэролин Хеннеси, Джей Аковон, М.С. Гейни, Сьюзэн Мерсон, Элизабет Мохэд, Джимми Снайдер, Билли Д. Лукас, Брайан Сайтс, Алана Керри, Ларри МакКормик, Роберт Алонсо

Описание: Прошло десять лет с тех пор, как Джон Коннор помог предотвратить Судный День и спасти человечество от массового уничтожения. Теперь ему 25, Коннор не живет «как все» - у него нет дома, нет кредитных карт, нет сотового телефона и никакой работы.
Его существование нигде не зарегистрировано. Он не может быть прослежен системой Skynet - высокоразвитой сетью машин, которые когда-то попробовали убить его и развязать войну против человечества. Пока из теней будущего не появляется T-X - Терминатрикс, самый сложный киборг-убийца Skynet.
Посланная назад сквозь время, чтобы завершить работу, начатую её предшественником, T-1000, эта машина так же упорна, как прекрасен её человеческий облик. Теперь единственная надежда Коннору выжить - Терминатор, его таинственный прежний убийца. Вместе они должны одержать победу над новыми технологиями T-X и снова предотвратить Судный День...



Кодек: H264
Качество: BDRip 1080p
Видео: MPEG-4 AVC, 1920x792, 15000 Кбит/с, 23.976 fps
Аудио 1: Русский, AC3, 6 ch, 640 Кбит/с Дубляж, Custom
Аудио 2: Русский, AC3, 6 ch, 448 Кбит/с Дубляж, Blu-ray CEE
Аудио 3: Русский, AC3, 6 ch, 640 Кбит/с Многоголосый закадровый, Карусель
Аудио 4: Русский, AC3, 6 ch, 384 Кбит/с Многоголосый закадровый
Аудио 5: Русский, АС3, 6 ch, 640 Кбит/с Одноголосый закадровый, А. Гаврилов
Аудио 6: Русский, АС3, 6 ch, 384 Кбит/с Одноголосый закадровый, М. Чадов
Аудио 7: Русский, АС3, 6 ch, 448 Кбит/с Одноголосый закадровый, В.Дохалов
Аудио 8: Английский, AC3, 6 ch, 640 Кбит/с Оригинал
Субтитры: Русские(форс, полные), английские
Главы: Есть

ЦитатаКто-то писал:
Аудио №1 сделана из оригинальной DTS-HD Master Audio дорожки и дублированной AC3 дорожки путём замены всех участков с английской речью, отголосками и эхом на аналогичные с дублированной дорожки во всех каналах. За нее спасибо Sergesha





x264 [info]: frame I:978 Avg QP:13.19 size:248744
x264 [info]: frame P:40760 Avg QP:15.21 size:130878
x264 [info]: frame B:115213 Avg QP:16.95 size: 58105

Общее
Уникальный идентификатор : 242911818443273132094739641201992227625 (0xB6BF1D4FC6D483CCAB4A6AC40C355B29)
Полное имя : I:Терминатор Коллекция3 Терминатор 3 Восстание машин.mkv
Формат : Matroska
Версия формата : Version 2
Размер файла : 14,6 Гбайт
Продолжительность : 1 ч. 49 м.
Общий поток : 19,2 Мбит/сек
Название фильма : Терминатор 3: Восстание машин 2003г.
Дата кодирования : UTC 2020-01-26 20:06:27
Программа кодирования : mkvmerge v5.8.0 ('No Sleep / Pillow') built on Sep 2 2012 15:37:04
Библиотека кодирования : libebml v1.2.3 + libmatroska v1.3.0
Обложка : Yes
Attachments : cover

Видео
Идентификатор : 1
Формат : AVC
Формат/Информация : Advanced Video Codec
Профиль формата : High@L4.1
Настройки формата : CABAC / 5 Ref Frames
Параметр CABAC формата : Да
Параметр RefFrames формата : 5 кадров
Идентификатор кодека : V_MPEG4/ISO/AVC
Продолжительность : 1 ч. 49 м.
Битрейт : 15,0 Мбит/сек
Ширина : 1920 пикселей
Высота : 792 пикселя
Соотношение сторон : 2,40:1
Режим частоты кадров : Постоянный
Частота кадров : 23,976 (24000/1001) кадра/сек
Цветовое пространство : YUV
Субдискретизация насыщенности : 4:2:0
Битовая глубина : 8 бит
Тип развёртки : Прогрессивная
Бит/(Пиксели*Кадры) : 0.411
Размер потока : 11,1 Гбайт (76%)
Библиотека кодирования : x264 core 152 r2851kMod ba24899
Настройки программы : cabac=1 / ref=5 / deblock=1:-3:-3 / analyse=0x3:0x113 / me=umh / subme=11 / psy=1 / fade_compensate=0.00 / psy_rd=1.00:0.00 / mixed_ref=1 / me_range=48 / chroma_me=1 / trellis=2 / 8x8dct=1 / cqm=0 / deadzone=21,11 / fast_pskip=0 / chroma_qp_offset=-2 / threads=12 / lookahead_threads=3 / sliced_threads=0 / nr=0 / decimate=0 / interlaced=0 / bluray_compat=0 / constrained_intra=0 / bframes=16 / b_pyramid=2 / b_adapt=2 / b_bias=0 / direct=3 / weightb=1 / open_gop=0 / weightp=2 / keyint=240 / keyint_min=23 / scenecut=40 / intra_refresh=0 / rc_lookahead=40 / rc=2pass / mbtree=0 / bitrate=15000 / ratetol=1.0 / qcomp=0.60 / qpmin=0 / qpmax=39 / qpstep=4 / cplxblur=20.0 / qblur=0.5 / vbv_maxrate=50000 / vbv_bufsize=62500 / nal_hrd=none / filler=0 / ip_ratio=1.22 / pb_ratio=1.30 / aq=2:0.70
Язык : English
Default : Да
Forced : Нет
Цветовой диапазон : Limited
Основные цвета : BT.709
Характеристики трансфера : BT.709
Коэффициенты матрицы : BT.709

Аудио #1
Идентификатор : 2
Формат : AC-3
Формат/Информация : Audio Coding 3
Параметр Endianness формата : Big
Идентификатор кодека : A_AC3
Продолжительность : 1 ч. 49 м.
Вид битрейта : Постоянный
Битрейт : 640 Кбит/сек
Каналы : 6 каналов
Расположение каналов : Front: L C R, Side: L R, LFE
Частота : 48,0 КГц
Частота кадров : 31,250 кадров/сек (1536 SPF)
Битовая глубина : 16 бит
Метод сжатия : С потерями
Размер потока : 499 Мбайт (3%)
Заголовок : Дубляж, Custom
Язык : Russian
Default : Да
Forced : Нет

Аудио #2
Идентификатор : 3
Формат : AC-3
Формат/Информация : Audio Coding 3
Параметр Endianness формата : Big
Идентификатор кодека : A_AC3
Продолжительность : 1 ч. 49 м.
Вид битрейта : Постоянный
Битрейт : 448 Кбит/сек
Каналы : 6 каналов
Расположение каналов : Front: L C R, Side: L R, LFE
Частота : 48,0 КГц
Частота кадров : 31,250 кадров/сек (1536 SPF)
Битовая глубина : 16 бит
Метод сжатия : С потерями
Размер потока : 350 Мбайт (2%)
Заголовок : Дубляж, Blu-ray CEE
Язык : Russian
Default : Нет
Forced : Нет

Аудио #3
Идентификатор : 4
Формат : AC-3
Формат/Информация : Audio Coding 3
Параметр Endianness формата : Big
Идентификатор кодека : A_AC3
Продолжительность : 1 ч. 49 м.
Вид битрейта : Постоянный
Битрейт : 640 Кбит/сек
Каналы : 6 каналов
Расположение каналов : Front: L C R, Side: L R, LFE
Частота : 48,0 КГц
Частота кадров : 31,250 кадров/сек (1536 SPF)
Битовая глубина : 16 бит
Метод сжатия : С потерями
Размер потока : 499 Мбайт (3%)
Заголовок : Многоголосый закадровый, Карусель
Язык : Russian
Default : Нет
Forced : Нет

Аудио #4
Идентификатор : 5
Формат : AC-3
Формат/Информация : Audio Coding 3
Параметр Endianness формата : Big
Идентификатор кодека : A_AC3
Продолжительность : 1 ч. 49 м.
Вид битрейта : Постоянный
Битрейт : 384 Кбит/сек
Каналы : 6 каналов
Расположение каналов : Front: L C R, Side: L R, LFE
Частота : 48,0 КГц
Частота кадров : 31,250 кадров/сек (1536 SPF)
Битовая глубина : 16 бит
Метод сжатия : С потерями
Размер потока : 300 Мбайт (2%)
Заголовок : Многоголосый закадровый
Язык : Russian
Default : Нет
Forced : Нет

Аудио #5
Идентификатор : 6
Формат : AC-3
Формат/Информация : Audio Coding 3
Параметр Endianness формата : Big
Идентификатор кодека : A_AC3
Продолжительность : 1 ч. 49 м.
Вид битрейта : Постоянный
Битрейт : 640 Кбит/сек
Каналы : 6 каналов
Расположение каналов : Front: L C R, Side: L R, LFE
Частота : 48,0 КГц
Частота кадров : 31,250 кадров/сек (1536 SPF)
Битовая глубина : 16 бит
Метод сжатия : С потерями
Размер потока : 499 Мбайт (3%)
Заголовок : Одноголосый закадровый, А. Гаврилов
Язык : Russian
Default : Нет
Forced : Нет

Аудио #6
Идентификатор : 7
Формат : AC-3
Формат/Информация : Audio Coding 3
Параметр Endianness формата : Big
Идентификатор кодека : A_AC3
Продолжительность : 1 ч. 49 м.
Вид битрейта : Постоянный
Битрейт : 384 Кбит/сек
Каналы : 6 каналов
Расположение каналов : Front: L C R, Side: L R, LFE
Частота : 48,0 КГц
Частота кадров : 31,250 кадров/сек (1536 SPF)
Битовая глубина : 16 бит
Метод сжатия : С потерями
Размер потока : 300 Мбайт (2%)
Заголовок : Одноголосый закадровый, М. Чадов
Язык : Russian
Default : Нет
Forced : Нет

Аудио #7
Идентификатор : 8
Формат : AC-3
Формат/Информация : Audio Coding 3
Параметр Endianness формата : Big
Идентификатор кодека : A_AC3
Продолжительность : 1 ч. 49 м.
Вид битрейта : Постоянный
Битрейт : 448 Кбит/сек
Каналы : 6 каналов
Расположение каналов : Front: L C R, Side: L R, LFE
Частота : 48,0 КГц
Частота кадров : 31,250 кадров/сек (1536 SPF)
Битовая глубина : 16 бит
Метод сжатия : С потерями
Размер потока : 350 Мбайт (2%)
Заголовок : Одноголосый закадровый, В.Дохалов
Язык : Russian
Default : Нет
Forced : Нет

Аудио #8
Идентификатор : 9
Формат : AC-3
Формат/Информация : Audio Coding 3
Параметр Endianness формата : Big
Идентификатор кодека : A_AC3
Продолжительность : 1 ч. 49 м.
Вид битрейта : Постоянный
Битрейт : 640 Кбит/сек
Каналы : 6 каналов
Расположение каналов : Front: L C R, Side: L R, LFE
Частота : 48,0 КГц
Частота кадров : 31,250 кадров/сек (1536 SPF)
Битовая глубина : 16 бит
Метод сжатия : С потерями
Размер потока : 499 Мбайт (3%)
Заголовок : Оригинал
Язык : English
Default : Нет
Forced : Нет

Текст #1
Идентификатор : 10
Формат : UTF-8
Идентификатор кодека : S_TEXT/UTF8
Идентификатор кодека/Информация : UTF-8 Plain Text
Заголовок : Forced
Язык : Russian
Default : Да
Forced : Нет

Текст #2
Идентификатор : 11
Формат : UTF-8
Идентификатор кодека : S_TEXT/UTF8
Идентификатор кодека/Информация : UTF-8 Plain Text
Язык : Russian
Default : Нет
Forced : Нет

Текст #3
Идентификатор : 12
Формат : UTF-8
Идентификатор кодека : S_TEXT/UTF8
Идентификатор кодека/Информация : UTF-8 Plain Text
Язык : English
Default : Нет
Forced : Нет

Меню
00:00:00.000 : :My Name Is John Connor
00:03:36.799 : :Weight of the Future
00:05:42.467 : :T-X Arrives
00:09:12.176 : :Humans in the Loop
00:11:24.474 : :Terminator Arrives
00:16:19.228 : :Quarries Subdued
00:20:22.138 : :Recognition
00:22:57.501 : :Pedal to the Metal
00:26:15.657 : :You Must Live
00:29:32.396 : :Multivehicular
00:32:27.946 : :Target Acquired
00:35:15.071 : :Demolition Derby
00:38:15.210 : :Obsolete Design
00:42:16.951 : :Talk to the Hand
00:43:49.710 : :Supposed to Meet
00:48:27.947 : :Don't Do That
00:51:47.938 : :Useful Emotions and People
00:53:56.233 : :Not Human
00:57:35.661 : :Hearse Havoc
01:00:07.229 : :Judgement Day
01:05:47.944 : :Future Shock
01:08:33.318 : :Open to Attack
01:10:48.870 : :Switch On
01:13:57.725 : :Rise of the Machines
01:18:25.658 : :Terminators Tangle
01:21:15.162 : :Magnetic Attraction
01:24:50.127 : :I Am a Machine!
01:28:58.707 : :Two for the Future
01:31:37.283 : :They're Back
01:33:42.283 : :Terminated
01:35:41.653 : :Mission Accomplished
01:39:03.437 : :Our Destiny
01:41:49.854 : :End Credits


#77
Терминатор: Да придёт спаситель
Terminator Salvation

Год выпуска: 2009
Страна: США, Германия, Великобритания, Италия
Жанр: Фантастика, боевик, триллер
Продолжительность: 01:57:31
Перевод: Дубляж, многоголосый закадровый, авторский

Режиссер: МакДжи / McG
В ролях: Кристиан Бэйл, Сэм Уортингтон, Мун Блудгуд, Хелена Бонем Картер, Антон Ельчин, Джадагрейс, Брайс Даллас Ховард, Common, Джейн Александр, Майкл Айронсайд, Ivan G'Vera, Крис Браунинг, Дориан Нконо, Бет Бэйли, Виктор Дж. Хо, Бастер Ривз, Кевин Уиггинс, Грег Серано, По Чан, Бабак Тафти, Брюс МакИнтош

Описание: 2018 год от рождества Христова. Джон Коннор - человек, чья судьба - возглавить Сопротивление электронному мозгу Скайнет и армии Терминаторов. Но в будущее, с верой в которое он возвращен, вклинивается таинственный Маркус Райт: незнакомец, чьи последние воспоминания рисуют камеру смертников.
Коннор должен понять, кто такой Маркус - посланник будущего или спасшийся из прошлого. И на фоне подготовки Скайнетом решающего удара, Коннор и Райт отправляются в путешествие, приводящее их в самую сердцевину взбунтовавшейся операционной системы, где открывается ужасная тайна, кроющаяся за потенциальным уничтожением человечества.



Кодек: H264
Качество: BDRip 1080p
Видео: MPEG-4 AVC, 1920x800, 15800 Кбит/с, 23.976 fps
Аудио 1: Русский, AC3, 6 ch, 640 Кбит/с Дубляж, Blu-ray CEE
Аудио 2: Русский, AC3, 6 ch, 448 Кбит/с Многоголосый закадровый, Киномания
Аудио 4: Русский, АС3, 6 ch, 640 Кбит/с Одноголосый закадровый, А.Гаврилов
Аудио 4: Русский, АС3, 6 ch, 640 Кбит/с Одноголосый закадровый, Ю.Сербин
Аудио 5: Русский, АС3, 6 ch, 640 Кбит/с Одноголосый закадровый, В. Горчаков
Аудио 6: Русский, АС3, 6 ch, 448 Кбит/с Одноголосый закадровый, В.Дохалов
Аудио 7: Английский, AC3, 6 ch, 640 Кбит/с Оригинал
Субтитры: Русские(форс, полные), английские(SDH)
Главы: Есть





x264 [info]: frame I:1056 Avg QP:13.92 size:241143
x264 [info]: frame P:48499 Avg QP:16.30 size:131167
x264 [info]: frame B:119501 Avg QP:17.86 size: 61152

Общее
Уникальный идентификатор : 225144220708829929448182368180755664299 (0xA961331C0EEFFFEE94ADFA49B6E68DAB)
Полное имя : I:Терминатор Коллекция4 Терминатор Да придет спаситель 2009г.mkv
Формат : Matroska
Версия формата : Version 2
Размер файла : 16,1 Гбайт
Продолжительность : 1 ч. 57 м.
Общий поток : 19,6 Мбит/сек
Название фильма : Терминатор Да придёт спаситель 2009г.
Дата кодирования : UTC 2020-01-29 19:25:40
Программа кодирования : mkvmerge v5.8.0 ('No Sleep / Pillow') built on Sep 2 2012 15:37:04
Библиотека кодирования : libebml v1.2.3 + libmatroska v1.3.0
Обложка : Yes
Attachments : cover.png

Видео
Идентификатор : 1
Формат : AVC
Формат/Информация : Advanced Video Codec
Профиль формата : High@L4.1
Настройки формата : CABAC / 5 Ref Frames
Параметр CABAC формата : Да
Параметр RefFrames формата : 5 кадров
Идентификатор кодека : V_MPEG4/ISO/AVC
Продолжительность : 1 ч. 57 м.
Битрейт : 15,8 Мбит/сек
Ширина : 1920 пикселей
Высота : 800 пикселей
Соотношение сторон : 2,40:1
Режим частоты кадров : Постоянный
Частота кадров : 23,976 (24000/1001) кадра/сек
Цветовое пространство : YUV
Субдискретизация насыщенности : 4:2:0
Битовая глубина : 8 бит
Тип развёртки : Прогрессивная
Бит/(Пиксели*Кадры) : 0.429
Размер потока : 12,6 Гбайт (78%)
Библиотека кодирования : x264 core 152 r2851kMod ba24899
Настройки программы : cabac=1 / ref=5 / deblock=1:-3:-3 / analyse=0x3:0x113 / me=umh / subme=11 / psy=1 / fade_compensate=0.00 / psy_rd=1.00:0.00 / mixed_ref=1 / me_range=48 / chroma_me=1 / trellis=2 / 8x8dct=1 / cqm=0 / deadzone=21,11 / fast_pskip=0 / chroma_qp_offset=-2 / threads=12 / lookahead_threads=3 / sliced_threads=0 / nr=0 / decimate=0 / interlaced=0 / bluray_compat=0 / constrained_intra=0 / bframes=10 / b_pyramid=2 / b_adapt=2 / b_bias=0 / direct=3 / weightb=1 / open_gop=0 / weightp=2 / keyint=240 / keyint_min=23 / scenecut=40 / intra_refresh=0 / rc_lookahead=40 / rc=2pass / mbtree=0 / bitrate=15800 / ratetol=1.0 / qcomp=0.60 / qpmin=0 / qpmax=39 / qpstep=4 / cplxblur=20.0 / qblur=0.5 / vbv_maxrate=50000 / vbv_bufsize=62500 / nal_hrd=none / filler=0 / ip_ratio=1.25 / pb_ratio=1.30 / aq=1:0.80
Язык : English
Default : Да
Forced : Нет
Цветовой диапазон : Limited
Основные цвета : BT.709
Характеристики трансфера : BT.709
Коэффициенты матрицы : BT.709

Аудио #1
Идентификатор : 2
Формат : AC-3
Формат/Информация : Audio Coding 3
Параметр Endianness формата : Big
Идентификатор кодека : A_AC3
Продолжительность : 1 ч. 57 м.
Вид битрейта : Постоянный
Битрейт : 640 Кбит/сек
Каналы : 6 каналов
Расположение каналов : Front: L C R, Side: L R, LFE
Частота : 48,0 КГц
Частота кадров : 31,250 кадров/сек (1536 SPF)
Битовая глубина : 16 бит
Метод сжатия : С потерями
Размер потока : 538 Мбайт (3%)
Заголовок : Дубляж
Язык : Russian
Default : Да
Forced : Нет

Аудио #2
Идентификатор : 3
Формат : AC-3
Формат/Информация : Audio Coding 3
Параметр Endianness формата : Big
Идентификатор кодека : A_AC3
Продолжительность : 1 ч. 57 м.
Вид битрейта : Постоянный
Битрейт : 448 Кбит/сек
Каналы : 6 каналов
Расположение каналов : Front: L C R, Side: L R, LFE
Частота : 48,0 КГц
Частота кадров : 31,250 кадров/сек (1536 SPF)
Битовая глубина : 16 бит
Метод сжатия : С потерями
Размер потока : 377 Мбайт (2%)
Заголовок : Многоголосый закадровый, Киномания
Язык : Russian
Default : Нет
Forced : Нет

Аудио #3
Идентификатор : 4
Формат : AC-3
Формат/Информация : Audio Coding 3
Параметр Endianness формата : Big
Идентификатор кодека : A_AC3
Продолжительность : 1 ч. 57 м.
Вид битрейта : Постоянный
Битрейт : 640 Кбит/сек
Каналы : 6 каналов
Расположение каналов : Front: L C R, Side: L R, LFE
Частота : 48,0 КГц
Частота кадров : 31,250 кадров/сек (1536 SPF)
Битовая глубина : 16 бит
Метод сжатия : С потерями
Размер потока : 538 Мбайт (3%)
Заголовок : Одноголосый закадровый, А.Гаврилов
Язык : Russian
Default : Нет
Forced : Нет

Аудио #4
Идентификатор : 5
Формат : AC-3
Формат/Информация : Audio Coding 3
Параметр Endianness формата : Big
Идентификатор кодека : A_AC3
Продолжительность : 1 ч. 57 м.
Вид битрейта : Постоянный
Битрейт : 640 Кбит/сек
Каналы : 6 каналов
Расположение каналов : Front: L C R, Side: L R, LFE
Частота : 48,0 КГц
Частота кадров : 31,250 кадров/сек (1536 SPF)
Битовая глубина : 16 бит
Метод сжатия : С потерями
Размер потока : 538 Мбайт (3%)
Заголовок : Одноголосый закадровый, Ю.Сербин
Язык : Russian
Default : Нет
Forced : Нет

Аудио #5
Идентификатор : 6
Формат : AC-3
Формат/Информация : Audio Coding 3
Параметр Endianness формата : Big
Идентификатор кодека : A_AC3
Продолжительность : 1 ч. 57 м.
Вид битрейта : Постоянный
Битрейт : 640 Кбит/сек
Каналы : 6 каналов
Расположение каналов : Front: L C R, Side: L R, LFE
Частота : 48,0 КГц
Частота кадров : 31,250 кадров/сек (1536 SPF)
Битовая глубина : 16 бит
Метод сжатия : С потерями
Размер потока : 538 Мбайт (3%)
Заголовок : Одноголосый закадровый, В. Горчаков
Язык : Russian
Default : Нет
Forced : Нет

Аудио #6
Идентификатор : 7
Формат : AC-3
Формат/Информация : Audio Coding 3
Параметр Endianness формата : Big
Идентификатор кодека : A_AC3
Продолжительность : 1 ч. 57 м.
Вид битрейта : Постоянный
Битрейт : 384 Кбит/сек
Каналы : 6 каналов
Расположение каналов : Front: L C R, Side: L R, LFE
Частота : 48,0 КГц
Частота кадров : 31,250 кадров/сек (1536 SPF)
Битовая глубина : 16 бит
Метод сжатия : С потерями
Размер потока : 323 Мбайт (2%)
Заголовок : Одноголосый закадровый, В.Дохалов
Язык : Russian
Default : Нет
Forced : Нет

Аудио #7
Идентификатор : 8
Формат : AC-3
Формат/Информация : Audio Coding 3
Параметр Endianness формата : Big
Идентификатор кодека : A_AC3
Продолжительность : 1 ч. 57 м.
Вид битрейта : Постоянный
Битрейт : 448 Кбит/сек
Каналы : 6 каналов
Расположение каналов : Front: L C R, Side: L R, LFE
Частота : 48,0 КГц
Частота кадров : 31,250 кадров/сек (1536 SPF)
Битовая глубина : 16 бит
Метод сжатия : С потерями
Размер потока : 377 Мбайт (2%)
Заголовок : Оригинал
Язык : English
Default : Нет
Forced : Нет

Текст #1
Идентификатор : 9
Формат : UTF-8
Идентификатор кодека : S_TEXT/UTF8
Идентификатор кодека/Информация : UTF-8 Plain Text
Заголовок : Forced
Язык : Russian
Default : Да
Forced : Нет

Текст #2
Идентификатор : 10
Формат : UTF-8
Идентификатор кодека : S_TEXT/UTF8
Идентификатор кодека/Информация : UTF-8 Plain Text
Заголовок : Full
Язык : Russian
Default : Нет
Forced : Нет

Текст #3
Идентификатор : 11
Формат : UTF-8
Идентификатор кодека : S_TEXT/UTF8
Идентификатор кодека/Информация : UTF-8 Plain Text
Заголовок : SDH
Язык : English
Default : Нет
Forced : Нет

Меню
00:00:00.000 : en:Death row Credits.
00:05:26.367 : en:R&D project.
00:10:22.455 : en:Survivors.
00:15:15.915 : en:Kill list.
00:18:44.456 : en:Out there alone.
00:21:45.220 : en:What happened here?
00:26:25.667 : en:You are the Resistance.
00:31:28.511 : en:Drive to stay alive.
00:35:33.548 : en:Harvester flareup.
00:41:16.098 : en:Moto-Terminator mayhem.
00:44:45.391 : en:Evasive maneuvers.
00:46:56.814 : en:On the same side.
00:53:37.881 : en:Not a good guy.
00:55:58.897 : en:Field test.
00:58:27.504 : en:Machine within.
01:04:54.223 : en:Identifications.
01:09:18.404 : en:Eyes on the machine.
01:12:53.035 : en:Hydrobots; his only hope.
01:17:07.497 : en:We are not machines.
01:21:58.330 : en:Infiltration in sync.
01:25:21.116 : en:Serve a purpose.
01:29:39.999 : en:John Connor's killer.
01:33:06.998 : en:Nuclear life source.
01:37:12.201 : en:Intervention.
01:40:02.287 : en:Mortally wounded.
01:44:01.068 : en:Second chances.
01:49:28.186 : en:End Credits.



#77
Терминатор: Генезис
Terminator Genisys

Год выпуска: 2015
Страна: США
Жанр: Фантастика, боевик, триллер
Продолжительность: 02:05:43
Перевод: Дубляж, многоголосый закадровый, авторский

Режиссер: Алан Тейлор / Alan Taylor
В ролях: Арнольд Шварценеггер, Джейсон Кларк, Эмилия Кларк, Джай Кортни, Дж. К. Симмонс, Дайо Окенийи, Мэтт Смит, Кортни Б. Вэнс

Описание: Когда Джон Коннор, лидер сопротивления, посылает сержанта Кайла Риза назад в 1984 год, чтобы защитить Сару Коннор и спасти будущее, неожиданный поворот событий создает разлом во времени. Сержант Риз оказывается в новой, незнакомой версии прошлого, где он встречает неожиданных союзников, в том числе Терминатора, новых опасных врагов, и новую миссию: изменить будущее…



Кодек: H264
Качество: BDRip 1080p
Видео: MPEG-4 AVC, 1908x800, 10300 Кбит/с, 23.976 fps
Аудио 1: Русский, AC3, 6 ch, 640 Кбит/с Дубляж, Blu-ray CEE
Аудио 2: Русский, AC3, 6 ch, 640 Кбит/с Многоголосый закадровый, Омикрон
Аудио 3: Русский, AC3, 6 ch, 640 Кбит/с Одноголосый закадровый, А.Гаврилов
Аудио 4: Русский, АС3, 6 ch, 640 Кбит/с Одноголосый закадровый, Л.Володарский
Аудио 5: Русский, АС3, 6 ch, 640 Кбит/с Одноголосый закадровый, Д.Есарев
Аудио 6: Русский, АС3, 6 ch, 640 Кбит/с Одноголосый закадровый, В.Дохалов
Аудио 7: Английский, АС3, 6 ch, 640 Кбит/с Оригинал
Субтитры: Русские(форс, 2х полные), английские(Full + SDH + SDH-Colored)
Главы: Есть

ЦитатаКто-то писал:
Дорожка Д.Есарева от Переулка Переводмана доступна благодаря shurikkein, sivservik, Ottotchiev, boldino, farivan, R.U., Прохожий, igrok2012, Volshebnik, kotofon
работа со звуком - Переводман.





x264 [info]: frame I:1329 Avg QP:11.49 size:198223
x264 [info]: frame P:53497 Avg QP:14.12 size: 88633
x264 [info]: frame B:126025 Avg QP:15.05 size: 37304

Общее
Уникальный идентификатор : 186090734870528141910575902146970041398 (0x8BFFC59902E6891DB2245E6C3320BC36)
Полное имя : I:Терминатор КоллекцияТерминатор Генезис 2015г.mkv
Формат : Matroska
Версия формата : Version 2
Размер файла : 13,0 Гбайт
Продолжительность : 2 ч. 5 м.
Общий поток : 14,8 Мбит/сек
Название фильма : Терминатор: Генезис 2015г.
Дата кодирования : UTC 2020-01-30 20:29:07
Программа кодирования : mkvmerge v5.8.0 ('No Sleep / Pillow') built on Sep 2 2012 15:37:04
Библиотека кодирования : libebml v1.2.3 + libmatroska v1.3.0

Видео
Идентификатор : 1
Формат : AVC
Формат/Информация : Advanced Video Codec
Профиль формата : High@L4.1
Настройки формата : CABAC / 5 Ref Frames
Параметр CABAC формата : Да
Параметр RefFrames формата : 5 кадров
Идентификатор кодека : V_MPEG4/ISO/AVC
Продолжительность : 2 ч. 5 м.
Битрейт : 10,3 Мбит/сек
Ширина : 1920 пикселей
Высота : 804 пикселя
Соотношение сторон : 2,40:1
Режим частоты кадров : Постоянный
Частота кадров : 23,976 (24000/1001) кадра/сек
Цветовое пространство : YUV
Субдискретизация насыщенности : 4:2:0
Битовая глубина : 8 бит
Тип развёртки : Прогрессивная
Бит/(Пиксели*Кадры) : 0.278
Размер потока : 8,79 Гбайт (68%)
Библиотека кодирования : x264 core 152 r2851kMod ba24899
Настройки программы : cabac=1 / ref=5 / deblock=1:-3:-3 / analyse=0x3:0x113 / me=umh / subme=11 / psy=1 / fade_compensate=0.00 / psy_rd=1.05:0.10 / mixed_ref=1 / me_range=48 / chroma_me=1 / trellis=2 / 8x8dct=1 / cqm=0 / deadzone=21,11 / fast_pskip=0 / chroma_qp_offset=-3 / threads=12 / lookahead_threads=3 / sliced_threads=0 / nr=0 / decimate=0 / interlaced=0 / bluray_compat=0 / constrained_intra=0 / bframes=10 / b_pyramid=2 / b_adapt=2 / b_bias=0 / direct=3 / weightb=1 / open_gop=0 / weightp=2 / keyint=240 / keyint_min=23 / scenecut=40 / intra_refresh=0 / rc_lookahead=40 / rc=2pass / mbtree=0 / bitrate=10300 / ratetol=1.0 / qcomp=0.60 / qpmin=0 / qpmax=39 / qpstep=4 / cplxblur=20.0 / qblur=0.5 / vbv_maxrate=50000 / vbv_bufsize=62500 / nal_hrd=none / filler=0 / ip_ratio=1.25 / pb_ratio=1.30 / aq=1:1.00
Язык : English
Default : Да
Forced : Нет
Цветовой диапазон : Limited
Основные цвета : BT.709
Характеристики трансфера : BT.709
Коэффициенты матрицы : BT.709

Аудио #1
Идентификатор : 2
Формат : AC-3
Формат/Информация : Audio Coding 3
Параметр Endianness формата : Big
Идентификатор кодека : A_AC3
Продолжительность : 2 ч. 5 м.
Вид битрейта : Постоянный
Битрейт : 640 Кбит/сек
Каналы : 6 каналов
Расположение каналов : Front: L C R, Side: L R, LFE
Частота : 48,0 КГц
Частота кадров : 31,250 кадров/сек (1536 SPF)
Битовая глубина : 16 бит
Метод сжатия : С потерями
Размер потока : 575 Мбайт (4%)
Заголовок : Дубляж, Blu-ray CEE
Язык : Russian
Default : Да
Forced : Нет

Аудио #2
Идентификатор : 3
Формат : AC-3
Формат/Информация : Audio Coding 3
Параметр Endianness формата : Big
Идентификатор кодека : A_AC3
Продолжительность : 2 ч. 5 м.
Вид битрейта : Постоянный
Битрейт : 640 Кбит/сек
Каналы : 6 каналов
Расположение каналов : Front: L C R, Side: L R, LFE
Частота : 48,0 КГц
Частота кадров : 31,250 кадров/сек (1536 SPF)
Битовая глубина : 16 бит
Метод сжатия : С потерями
Размер потока : 575 Мбайт (4%)
Заголовок : Многоголосый закадровый, Омикрон
Язык : Russian
Default : Нет
Forced : Нет

Аудио #3
Идентификатор : 4
Формат : AC-3
Формат/Информация : Audio Coding 3
Параметр Endianness формата : Big
Идентификатор кодека : A_AC3
Продолжительность : 2 ч. 5 м.
Вид битрейта : Постоянный
Битрейт : 640 Кбит/сек
Каналы : 6 каналов
Расположение каналов : Front: L C R, Side: L R, LFE
Частота : 48,0 КГц
Частота кадров : 31,250 кадров/сек (1536 SPF)
Битовая глубина : 16 бит
Метод сжатия : С потерями
Размер потока : 575 Мбайт (4%)
Заголовок : Одноголосый закадровый, А.Гаврилов
Язык : Russian
Default : Нет
Forced : Нет

Аудио #4
Идентификатор : 5
Формат : AC-3
Формат/Информация : Audio Coding 3
Параметр Endianness формата : Big
Идентификатор кодека : A_AC3
Продолжительность : 2 ч. 5 м.
Вид битрейта : Постоянный
Битрейт : 640 Кбит/сек
Каналы : 6 каналов
Расположение каналов : Front: L C R, Side: L R, LFE
Частота : 48,0 КГц
Частота кадров : 31,250 кадров/сек (1536 SPF)
Битовая глубина : 16 бит
Метод сжатия : С потерями
Размер потока : 575 Мбайт (4%)
Заголовок : Одноголосый закадровый, Л.Володарский
Язык : Russian
Default : Нет
Forced : Нет

Аудио #5
Идентификатор : 6
Формат : AC-3
Формат/Информация : Audio Coding 3
Параметр Endianness формата : Big
Идентификатор кодека : A_AC3
Продолжительность : 2 ч. 5 м.
Вид битрейта : Постоянный
Битрейт : 640 Кбит/сек
Каналы : 6 каналов
Расположение каналов : Front: L C R, Side: L R, LFE
Частота : 48,0 КГц
Частота кадров : 31,250 кадров/сек (1536 SPF)
Битовая глубина : 16 бит
Метод сжатия : С потерями
Размер потока : 575 Мбайт (4%)
Заголовок : Одноголосый закадровый, Д.Есарев
Язык : Russian
Default : Нет
Forced : Нет

Аудио #6
Идентификатор : 7
Формат : AC-3
Формат/Информация : Audio Coding 3
Параметр Endianness формата : Big
Идентификатор кодека : A_AC3
Продолжительность : 2 ч. 5 м.
Вид битрейта : Постоянный
Битрейт : 640 Кбит/сек
Каналы : 6 каналов
Расположение каналов : Front: L C R, Side: L R, LFE
Частота : 48,0 КГц
Частота кадров : 31,250 кадров/сек (1536 SPF)
Битовая глубина : 16 бит
Метод сжатия : С потерями
Размер потока : 575 Мбайт (4%)
Заголовок : Одноголосый закадровый, В.Дохалов
Язык : Russian
Default : Нет
Forced : Нет

Аудио #7
Идентификатор : 8
Формат : AC-3
Формат/Информация : Audio Coding 3
Параметр Endianness формата : Big
Идентификатор кодека : A_AC3
Продолжительность : 2 ч. 5 м.
Вид битрейта : Постоянный
Битрейт : 640 Кбит/сек
Каналы : 6 каналов
Расположение каналов : Front: L C R, Side: L R, LFE
Частота : 48,0 КГц
Частота кадров : 31,250 кадров/сек (1536 SPF)
Битовая глубина : 16 бит
Метод сжатия : С потерями
Размер потока : 575 Мбайт (4%)
Заголовок : Оригинал
Язык : English
Default : Нет
Forced : Нет

Текст #1
Идентификатор : 9
Формат : UTF-8
Идентификатор кодека : S_TEXT/UTF8
Идентификатор кодека/Информация : UTF-8 Plain Text
Заголовок : Forced
Язык : Russian
Default : Да
Forced : Нет

Текст #2
Идентификатор : 10
Формат : UTF-8
Идентификатор кодека : S_TEXT/UTF8
Идентификатор кодека/Информация : UTF-8 Plain Text
Заголовок : Blu-Ray
Язык : Russian
Default : Нет
Forced : Нет

Текст #3
Идентификатор : 11
Формат : UTF-8
Идентификатор кодека : S_TEXT/UTF8
Идентификатор кодека/Информация : UTF-8 Plain Text
Заголовок : Italic
Язык : Russian
Default : Нет
Forced : Нет

Текст #4
Идентификатор : 12
Формат : UTF-8
Идентификатор кодека : S_TEXT/UTF8
Идентификатор кодека/Информация : UTF-8 Plain Text
Заголовок : Full
Язык : English
Default : Нет
Forced : Нет

Текст #5
Идентификатор : 13
Формат : UTF-8
Идентификатор кодека : S_TEXT/UTF8
Идентификатор кодека/Информация : UTF-8 Plain Text
Заголовок : SDH
Язык : English
Default : Нет
Forced : Нет

Текст #6
Идентификатор : 14
Формат : UTF-8
Идентификатор кодека : S_TEXT/UTF8
Идентификатор кодека/Информация : UTF-8 Plain Text
Заголовок : SDH-Colored
Язык : English
Default : Нет
Forced : Нет

Меню
00:00:00.000 : :(01)00:00:00:000
00:07:40.334 : :(02)00:07:40:334
00:14:20.734 : :(03)00:14:20:734
00:20:31.563 : :(04)00:20:31:563
00:27:48.416 : :(05)00:27:48:416
00:34:54.801 : :(06)00:34:54:801
00:41:02.626 : :(07)00:41:02:626
00:46:28.786 : :(08)00:46:28:786
00:53:05.515 : :(09)00:53:05:515
01:01:00.239 : :(10)01:01:00:239
01:08:22.555 : :(11)01:08:22:555
01:14:43.812 : :(12)01:14:43:812
01:21:31.261 : :(13)01:21:31:261
01:31:01.706 : :(14)01:31:01:706
01:38:42.750 : :(15)01:38:42:750
01:45:41.084 : :(16)01:45:41:084
01:52:48.970 : :(17)01:52:48:970
01:58:00.114 : :(18)01:58:00:114


#77
Терминатор: Темные судьбы
Terminator: Dark Fate

Год выпуска: 2019
Страна: США, Китай
Жанр: Фантастика, боевик, приключения
Продолжительность: 02:08:06
Перевод: Дубляж, авторский

Режиссер: Тим Миллер / Tim Miller
В ролях: Арнольд Шварценеггер, Маккензи Дэвис, Линда Хэмилтон, Эдвард Ферлонг, Гэбриел Луна, Наталия Рейес, Том Хоппер, Диего Бонета, Алисия Боррачеро, Энрике Арсе, Стивен Кри, Ферран Фернандес

Описание: Мексика. Милая девушка Даниэла Рамос, а для друзей просто Дани, вместе с братом приходит с утра работать на завод, но там выясняется, что их вскоре заменят автоматикой. И это не единственная угроза, которую представляют для девушки машины: тут же на неё нападает присланная из будущего и практически неубиваемая модель терминатора REV-9. Но на защиту Дани встает Грэйс — тоже прибывшая из будущего женщина, модифицировавшая свои боевые характеристики до терминаторского уровня. Вскоре к ним на помощь придёт и Сара Коннор, которая теперь превратилась в настоящую охотницу на роботов-убийц.



Кодек: H264
Качество: BDRip 1080p
Видео: MPEG-4 AVC, 1920x804, 15500 Кбит/с, 23.976 fps
Аудио 1: Русский, AC3, 6 ch, 640 Кбит/с Дубляж, Custom - со вставками Д.Есарева
Аудио 2: Русский, AC3, 6 ch, 640 Кбит/с Дубляж, Custom
Аудио 3: Русский, AC3, 6 ch, 640 Кбит/с Дубляж, Custom
Аудио 4: Русский, АС3, 6 ch, 640 Кбит/с Одноголосый закадровый, Д.Есарев
Аудио 5: Английский, AC3, 6 ch, 640 Кбит/с Оригинал
Субтитры: Русские(форс, 3х полные), английские(Forced, Full + SDH + SDH-Colored)
Главы: Есть

ЦитатаКто-то писал:
Дорожка Д.Есарева доступна благодаря пользователям Переулка Переводмана: igrok2012, Литти, saint-sinner, kidman644, podorov92], garik123, Pr0peLLer, nikolas, van156, stimco, ZeDOK, AleXXX, CATFISH-2, Avatar-Lion, Loki1982, zhora867 работа со звуком - Переводман





x264 [info]: frame I:1163 Avg QP:13.42 size:274746
x264 [info]: frame P:48835 Avg QP:15.53 size:132676
x264 [info]: frame B:134274 Avg QP:17.71 size: 60241

Общее
Уникальный идентификатор : 220511919648710929600018335783443620586 (0xA5E50D08BCD8B9D8ABD16842FDD5E2EA)
Полное имя : I:Терминатор Коллекция6 Терминатор Темные судьбы 2019г. BDRip 1080p.mkv
Формат : Matroska
Версия формата : Version 2
Размер файла : 16,7 Гбайт
Продолжительность : 2 ч. 8 м.
Общий поток : 18,7 Мбит/сек
Название фильма : Терминатор Темные судьбы 2019г.
Дата кодирования : UTC 2020-02-20 11:03:23
Программа кодирования : mkvmerge v5.8.0 ('No Sleep / Pillow') built on Sep 2 2012 15:37:04
Библиотека кодирования : libebml v1.2.3 + libmatroska v1.3.0

Видео
Идентификатор : 1
Формат : AVC
Формат/Информация : Advanced Video Codec
Профиль формата : High@L4.1
Настройки формата : CABAC / 5 Ref Frames
Параметр CABAC формата : Да
Параметр RefFrames формата : 5 кадров
Идентификатор кодека : V_MPEG4/ISO/AVC
Продолжительность : 2 ч. 8 м.
Битрейт : 15,5 Мбит/сек
Ширина : 1920 пикселей
Высота : 804 пикселя
Соотношение сторон : 2,40:1
Режим частоты кадров : Постоянный
Частота кадров : 23,976 (24000/1001) кадра/сек
Цветовое пространство : YUV
Субдискретизация насыщенности : 4:2:0
Битовая глубина : 8 бит
Тип развёртки : Прогрессивная
Бит/(Пиксели*Кадры) : 0.419
Размер потока : 13,5 Гбайт (81%)
Библиотека кодирования : x264 core 152 r2851kMod ba24899
Настройки программы : cabac=1 / ref=5 / deblock=1:-2:-2 / analyse=0x3:0x113 / me=umh / subme=11 / psy=1 / fade_compensate=0.00 / psy_rd=1.00:0.00 / mixed_ref=1 / me_range=48 / chroma_me=1 / trellis=2 / 8x8dct=1 / cqm=0 / deadzone=21,11 / fast_pskip=0 / chroma_qp_offset=-2 / threads=12 / lookahead_threads=3 / sliced_threads=0 / nr=0 / decimate=0 / interlaced=0 / bluray_compat=0 / constrained_intra=0 / bframes=10 / b_pyramid=2 / b_adapt=2 / b_bias=0 / direct=3 / weightb=1 / open_gop=0 / weightp=2 / keyint=240 / keyint_min=23 / scenecut=40 / intra_refresh=0 / rc_lookahead=40 / rc=2pass / mbtree=0 / bitrate=15500 / ratetol=1.0 / qcomp=0.60 / qpmin=0 / qpmax=39 / qpstep=4 / cplxblur=20.0 / qblur=0.5 / vbv_maxrate=50000 / vbv_bufsize=62500 / nal_hrd=none / filler=0 / ip_ratio=1.35 / pb_ratio=1.30 / aq=1:1.00
Язык : English
Default : Да
Forced : Нет
Цветовой диапазон : Limited
Основные цвета : BT.709
Характеристики трансфера : BT.709
Коэффициенты матрицы : BT.709

Аудио #1
Идентификатор : 2
Формат : AC-3
Формат/Информация : Audio Coding 3
Параметр Endianness формата : Big
Идентификатор кодека : A_AC3
Продолжительность : 2 ч. 8 м.
Вид битрейта : Постоянный
Битрейт : 640 Кбит/сек
Каналы : 6 каналов
Расположение каналов : Front: L C R, Side: L R, LFE
Частота : 48,0 КГц
Частота кадров : 31,250 кадров/сек (1536 SPF)
Битовая глубина : 16 бит
Метод сжатия : С потерями
Размер потока : 586 Мбайт (3%)
Заголовок : Дубляж Custom - Есарев
Язык : Russian
Default : Да
Forced : Нет

Аудио #2
Идентификатор : 3
Формат : AC-3
Формат/Информация : Audio Coding 3
Параметр Endianness формата : Big
Идентификатор кодека : A_AC3
Продолжительность : 2 ч. 8 м.
Вид битрейта : Постоянный
Битрейт : 640 Кбит/сек
Каналы : 6 каналов
Расположение каналов : Front: L C R, Side: L R, LFE
Частота : 48,0 КГц
Частота кадров : 31,250 кадров/сек (1536 SPF)
Битовая глубина : 16 бит
Метод сжатия : С потерями
Размер потока : 586 Мбайт (3%)
Заголовок : Дубляж Custom
Язык : Russian
Default : Нет
Forced : Нет

Аудио #3
Идентификатор : 4
Формат : AC-3
Формат/Информация : Audio Coding 3
Параметр Endianness формата : Big
Идентификатор кодека : A_AC3
Продолжительность : 2 ч. 8 м.
Вид битрейта : Постоянный
Битрейт : 640 Кбит/сек
Каналы : 6 каналов
Расположение каналов : Front: L C R, Side: L R, LFE
Частота : 48,0 КГц
Частота кадров : 31,250 кадров/сек (1536 SPF)
Битовая глубина : 16 бит
Метод сжатия : С потерями
Размер потока : 586 Мбайт (3%)
Заголовок : Дубляж Custom
Язык : Russian
Default : Нет
Forced : Нет

Аудио #4
Идентификатор : 5
Формат : AC-3
Формат/Информация : Audio Coding 3
Параметр Endianness формата : Big
Идентификатор кодека : A_AC3
Продолжительность : 2 ч. 8 м.
Вид битрейта : Постоянный
Битрейт : 640 Кбит/сек
Каналы : 6 каналов
Расположение каналов : Front: L C R, Side: L R, LFE
Частота : 48,0 КГц
Частота кадров : 31,250 кадров/сек (1536 SPF)
Битовая глубина : 16 бит
Метод сжатия : С потерями
Размер потока : 586 Мбайт (3%)
Заголовок : Одноголосый закадровый, Д.Есарев
Язык : Russian
Default : Нет
Forced : Нет

Аудио #5
Идентификатор : 6
Формат : AC-3
Формат/Информация : Audio Coding 3
Параметр Endianness формата : Big
Идентификатор кодека : A_AC3
Продолжительность : 2 ч. 8 м.
Вид битрейта : Постоянный
Битрейт : 640 Кбит/сек
Каналы : 6 каналов
Расположение каналов : Front: L C R, Side: L R, LFE
Частота : 48,0 КГц
Частота кадров : 31,250 кадров/сек (1536 SPF)
Битовая глубина : 16 бит
Метод сжатия : С потерями
Размер потока : 586 Мбайт (3%)
Заголовок : Оригинал
Язык : English
Default : Нет
Forced : Нет

Текст #1
Идентификатор : 7
Формат : UTF-8
Идентификатор кодека : S_TEXT/UTF8
Идентификатор кодека/Информация : UTF-8 Plain Text
Заголовок : Forced iTunes
Язык : Russian
Default : Нет
Forced : Нет

Текст #2
Идентификатор : 8
Формат : UTF-8
Идентификатор кодека : S_TEXT/UTF8
Идентификатор кодека/Информация : UTF-8 Plain Text
Заголовок : Full iTunes
Язык : Russian
Default : Нет
Forced : Нет

Текст #3
Идентификатор : 9
Формат : UTF-8
Идентификатор кодека : S_TEXT/UTF8
Идентификатор кодека/Информация : UTF-8 Plain Text
Заголовок : Full Enigma
Язык : Russian
Default : Нет
Forced : Нет

Текст #4
Идентификатор : 10
Формат : UTF-8
Идентификатор кодека : S_TEXT/UTF8
Идентификатор кодека/Информация : UTF-8 Plain Text
Заголовок : Full Fadeev, Levina
Язык : Russian
Default : Нет
Forced : Нет

Текст #5
Идентификатор : 11
Формат : UTF-8
Идентификатор кодека : S_TEXT/UTF8
Идентификатор кодека/Информация : UTF-8 Plain Text
Заголовок : Forced
Язык : English
Default : Нет
Forced : Нет

Текст #6
Идентификатор : 12
Формат : UTF-8
Идентификатор кодека : S_TEXT/UTF8
Идентификатор кодека/Информация : UTF-8 Plain Text
Заголовок : Full
Язык : English
Default : Нет
Forced : Нет

Текст #7
Идентификатор : 13
Формат : UTF-8
Идентификатор кодека : S_TEXT/UTF8
Идентификатор кодека/Информация : UTF-8 Plain Text
Заголовок : SDH
Язык : English
Default : Нет
Forced : Нет

Текст #8
Идентификатор : 14
Формат : UTF-8
Идентификатор кодека : S_TEXT/UTF8
Идентификатор кодека/Информация : UTF-8 Plain Text
Заголовок : SDH Colored
Язык : English
Default : Нет
Forced : Нет

Меню
00:00:00.000 : en:Глава 01
00:04:19.843 : en:Глава 02
00:07:48.927 : en:Глава 03
00:11:47.916 : en:Глава 04
00:16:56.349 : en:Глава 05
00:22:10.663 : en:Глава 06
00:29:00.614 : en:Глава 07
00:33:25.754 : en:Глава 08
00:41:35.493 : en:Глава 09
00:47:02.695 : en:Глава 10
00:53:08.936 : en:Глава 11
00:57:56.807 : en:Глава 12
01:05:02.690 : en:Глава 13
01:13:07.967 : en:Глава 14
01:20:45.591 : en:Глава 15
01:27:29.744 : en:Глава 16
01:32:48.688 : en:Глава 17
01:41:45.850 : en:Глава 18
01:49:35.319 : en:Глава 19
01:57:58.613 : en:Глава 20


За исходники благодарю Skazhutin, alex260680, Daddy_BOSS, Socrat, Селезень.
Отдельный респект Казимиру Алмазову.

Звук: Двухканальные(искл. Л.Володарский Т1), А.Гаврилов(ранний, средний) к Т1, любительские дорожки не добавлены. Имхо.

Сравнение трансферов Терминатор 2: Судный день:
ЦитатаКто-то писал:
alex260680
BD LIONSGATE | BD DC | BD SKYNET


Не забывайте говорить Спасибо. Не уходите с раздачи!   
Торрент: Зарегистрирован [25 мар 2020, 19:16]
Статус:
Проверен
 
.torrent скачан: 35 раз
Хэш: ab14597c671ab0f9737343b981ddaf708570f6c2
Размер: 105.68 ГБ (113 472 607 101 байт)
   Стать Автором раздачи
   
Цитата

Вернуться в Зарубежное кино (HD Video)

Кто сейчас на конференции

Сейчас эту тему просматривают: нет зарегистрированных пользователей и гости: 1