Хищные птицы: Потрясающая история Харли Квинн / Birds of Prey: And the Fantabulous Emancipation of One Harley Quinn (2020) WEB-DL 1080p | HDrezka Studio

 Статистика раздачи 
Размер: 7.86 ГБ   |  Зарегистрирован: 25 мар 2020, 14:28   |   .torrent скачан: 1468 раз
Сидеров: 219  [ 0 байт/сек ]     Личеров: 64  [ 0 байт/сек ]  
  
Аватара пользователя
Главный редактор
Главный редактор
Я на сайте
 
Раздал: 90.01 ТБ
Скачал: 3.78 ТБ
Ратио: 24.248
Сообщения: 288661
Стаж: 9 лет 5 месяцев 7 дней
Откуда: Санкт-Петербург

Информация о фильме
Название: Хищные птицы: Потрясающая история Харли Квинн
Оригинальное название: Birds of Prey: And the Fantabulous Emancipation of One Harley Quinn
Год выхода: 2020
Жанр: Боевик, криминал, комедия
Режиссер: Кэти Янь
В ролях: Марго Робби, Джерни Смоллетт, Мэри Элизабет Уинстэд, Рози Перес, Элла Джей Баско, Юэн Макгрегор, Крис Мессина, Бояна Новакович, Али Вонг, Дэвид Ури

О фильме:
Харли Квинн рассталась с Джокером и через некоторое время сообщила об этом всему Готэму, взорвав тот самый химзавод. Девушка больше не тоскует по несостоявшимся отношениям — ей некогда, так как она также потеряла неприкосновенность, и теперь за ней охотятся разной степени криминализованности граждане, которым она когда-либо наносила вред. А в это время ставший крёстным отцом Готема Роман Сайонис очень жаждет вернуть пропавший бриллиант, который стащила у его подручного малолетняя карманница.

Страна: США
Студия: Clubhouse Pictures (II), DC Entertainment, Kroll & Co. Entertainment
Продолжительность: 01:48:50
Перевод: Профессиональный (многоголосый, закадровый) | HDrezka Studio
Внимание: присутствует ненормативная лексика

Файл
Качество: WEB-DL 1080p | AMZN
Видео: AVC/H.264, 1920x800, ~9242 Кbps, 23.976 fps
Звук:
Аудио 1: AC3, 6 ch, 448 Kbps - Русский
Аудио 2: E-AC3, 6 ch, 640 Kbps - Английский
Субтитры: Русские (Forced, Full), Английские (Full, SDH)

Общее
Уникальный идентификатор : 127354106678510905541080677549877846900 (0x5FCF823E0C624899BD763C6E4DC56374)
Полное имя : Birds of Prey.2020.AMZN.WEB-DL.1080p.W.mkv
Формат : Matroska
Версия формата : Version 4
Размер файла : 7,86 Гбайт
Продолжительность : 1 ч. 48 м.
Общий поток : 10,3 Мбит/сек
Название фильма : Birds of Prey.2020.AMZN.WEB-DL.1080p.W
Дата кодирования : UTC 2020-03-25 09:35:44
Программа кодирования : mkvmerge v23.0.0 ('The Bride Said No') 64-bit
Библиотека кодирования : libebml v1.3.6 + libmatroska v1.4.9

Видео
Идентификатор : 1
Формат : AVC
Формат/Информация : Advanced Video Codec
Профиль формата : High@L4
Настройки формата : CABAC / 4 Ref Frames
Параметр CABAC формата : Да
Параметр RefFrames формата : 4 кадра
Идентификатор кодека : V_MPEG4/ISO/AVC
Продолжительность : 1 ч. 48 м.
Вид битрейта : Постоянный
Битрейт : 9242 Кбит/сек
Номинальный битрейт : 10000 Кбит/сек
Ширина : 1920 пикселей
Высота : 800 пикселей
Соотношение сторон : 2,40:1
Режим частоты кадров : Постоянный
Частота кадров : 23,976 (24000/1001) кадра/сек
Цветовое пространство : YUV
Субдискретизация насыщенности : 4:2:0
Битовая глубина : 8 бит
Тип развёртки : Прогрессивная
Бит/(Пиксели*Кадры) : 0.251
Размер потока : 7,03 Гбайт (89%)
Язык : English
Default : Да
Forced : Нет
Цветовой диапазон : Limited
Основные цвета : BT.709
Характеристики трансфера : BT.709
Коэффициенты матрицы : BT.709

Аудио #1
Идентификатор : 2
Формат : AC-3
Формат/Информация : Audio Coding 3
Коммерческое название : Dolby Digital
Идентификатор кодека : A_AC3
Продолжительность : 1 ч. 48 м.
Вид битрейта : Постоянный
Битрейт : 448 Кбит/сек
Каналы : 6 каналов
ChannelLayout : L R C LFE Ls Rs
Частота : 48,0 КГц
Частота кадров : 31,250 кадров/сек (1536 SPF)
Метод сжатия : С потерями
Размер потока : 349 Мбайт (4%)
Заголовок : MVO | HDRezka Studio
Язык : Russian
ServiceKind : Complete Main
Default : Да
Forced : Нет

Аудио #2
Идентификатор : 3
Формат : E-AC-3
Формат/Информация : Enhanced AC-3
Коммерческое название : Dolby Digital Plus
Идентификатор кодека : A_EAC3
Продолжительность : 1 ч. 48 м.
Вид битрейта : Постоянный
Битрейт : 640 Кбит/сек
Каналы : 6 каналов
ChannelLayout : L R C LFE Ls Rs
Частота : 48,0 КГц
Частота кадров : 31,250 кадров/сек (1536 SPF)
Метод сжатия : С потерями
Размер потока : 498 Мбайт (6%)
Язык : English
ServiceKind : Complete Main
Default : Нет
Forced : Нет

Текст #1
Идентификатор : 4
Формат : UTF-8
Идентификатор кодека : S_TEXT/UTF8
Идентификатор кодека/Информация : UTF-8 Plain Text
Продолжительность : 1 ч. 32 м.
Битрейт : 1 бит/сек
ElementCount : 22
Размер потока : 1,13 Кбайт (0%)
Заголовок : Forced
Язык : Russian
Default : Да
Forced : Нет

Текст #2
Идентификатор : 5
Формат : UTF-8
Идентификатор кодека : S_TEXT/UTF8
Идентификатор кодека/Информация : UTF-8 Plain Text
Продолжительность : 1 ч. 40 м.
Битрейт : 103 бит/сек
ElementCount : 1249
Размер потока : 76,5 Кбайт (0%)
Заголовок : Full
Язык : Russian
Default : Нет
Forced : Нет

Текст #3
Идентификатор : 6
Формат : UTF-8
Идентификатор кодека : S_TEXT/UTF8
Идентификатор кодека/Информация : UTF-8 Plain Text
Продолжительность : 1 ч. 48 м.
Битрейт : 53 бит/сек
ElementCount : 1586
Размер потока : 42,5 Кбайт (0%)
Язык : English
Default : Нет
Forced : Нет

Текст #4
Идентификатор : 7
Формат : UTF-8
Идентификатор кодека : S_TEXT/UTF8
Идентификатор кодека/Информация : UTF-8 Plain Text
Продолжительность : 1 ч. 48 м.
Битрейт : 75 бит/сек
ElementCount : 2100
Размер потока : 59,8 Кбайт (0%)
Заголовок : SDH
Язык : English
Default : Нет
Forced : Нет

Меню
00:00:00.000 : en:Studio Logos
00:00:30.000 : en:Harley Quinn's backstory
00:01:56.000 : en:Trying to get her life together
00:05:43.000 : en:A chance to be a new woman
00:07:59.000 : en:Title Sequence
00:08:07.000 : en:Meet the cop
00:10:44.000 : en:Roman Sionis aka Black Mask
00:12:41.000 : en:Life without immunity
00:17:52.000 : en:Montoya makes her case to the Captain
00:21:37.000 : en:Ambush at the station
00:23:55.000 : en:The Black Canary
00:33:39.000 : en:Caught in the cross-hairs
00:38:01.000 : en:An unexpected complication
00:40:15.000 : en:An offer to help Sionis
00:46:29.000 : en:Breaking Cass out of prison
00:53:43.000 : en:Harley and Cass bond
01:01:14.000 : en:The Huntress
01:04:24.000 : en:Roman is losing it
01:06:53.000 : en:Things get worse for Montoya
01:08:09.000 : en:The cost of business
01:14:07.000 : en:Meeting at the amusement park
01:23:50.000 : en:Girl power
01:29:53.000 : en:Black Canary has to sing
01:31:25.000 : en:There is power in fear
01:37:34.000 : en:The emancipation of everyone
01:41:24.000 : en:End Credits

Не забывайте говорить Спасибо. Не уходите с раздачи!   
Торрент: Зарегистрирован [25 мар 2020, 14:28]
Статус:
Проверен
 
.torrent скачан: 1468 раз
Хэш: eebfbdce9e456cd9ede9e106b4c3238025bc40d1
Размер: 7.86 ГБ (8 435 183 991 байт)
   Стать Автором раздачи
   
Цитата
  • Похожие торренты
    Ответы
    Просмотры
    Последнее сообщение

Вернуться в Зарубежное кино (HD Video)

Кто сейчас на конференции

Сейчас эту тему просматривают: нет зарегистрированных пользователей и гости: 1