Пока фронт в обороне (1964) SATRip-AVC от New-Team

 Статистика раздачи 
Размер: 744.53 МБ   |  Зарегистрирован: 25 мар 2020, 11:57   |   .torrent скачан: 70 раз
Сидеров: 45  [ 0 байт/сек ]     Личеров: 16  [ 0 байт/сек ]  
  
Аватара пользователя
 
Раздал: 6.64 ТБ
Скачал: 597.93 ГБ
Ратио: 11.363
Сообщения: 259447
Стаж: 3 года 6 дней

Страна: СССР
Производство: Ленфильм

Жанр: военный
Год выпуска: 1964
Продолжительность: 01:21:28

Перевод: Не требуется
Cубтитры: нет
Оригинальная аудиодорожка: русский

Режиссер: Юлий Файт


Игорь Косухин, Виктор Авдюшко, Светлана Светличная, Владимир Белокуров, Александр Демьяненко, Юрий Соловьёв, Андрей Файт, Геннадий Крашенинников, Александр Анисимов, Георгий Жжёнов, Александр Суснин...
Об актёрах подробней


Волховский фронт 1942 года. Молодой политрук отдела контрпропаганды штаба дивизии Русанов рвется на передовую. Он добирается до передовой и ведет со звукопередвижки передачи, обращенные к немецким солдатам. А в часы затишья проходит по несколько километров ради того, чтобы увидеть Катю, связистку соседнего участка фронта…






Исходник: DVB
Качество видео: SATRip-AVC
Формат видео: MKV

Видео: 688->755x302 (2,500:1), 25,000 кадров/сек, H264 ~ 1084 Кбит/сек, 0.209 bit/pixel
Аудио: 48 kHz, Dolby Digital AC3 2.0, 192 kbps

Раздача от:
Общее
Полное имя : Poka.front.v.oborone.1964.SATRip-AVC_[New-team]_by_AVP_Studio.mkv
Формат : Matroska
Версия формата : Version 2
Размер файла : 745 Мбайт
Продолжительность : 1 ч. 21 м.
Общий поток : 1278 Кбит/сек
Дата кодирования : UTC 2020-03-19 11:49:28
Программа кодирования : mkvmerge v6.9.1 ('Blue Panther') 32bit built on Apr 18 2014 18:15:44
Библиотека кодирования : libebml v1.3.0 + libmatroska v1.4.1

Видео
Идентификатор : 1
Формат : AVC
Формат/Информация : Advanced Video Codec
Профиль формата : High@L4.1
Настройки формата : CABAC / 10 Ref Frames
Параметр CABAC формата : Да
Параметр RefFrames формата : 10 кадров
Идентификатор кодека : V_MPEG4/ISO/AVC
Продолжительность : 1 ч. 21 м.
Битрейт : 1084 Кбит/сек
Ширина : 688 пикселей
Высота : 302 пикселя
Соотношение сторон : 2,500
Режим частоты кадров : Постоянный
Частота кадров : 25,000 кадров/сек
Цветовое пространство : YUV
Субдискретизация насыщенности : 4:2:0
Битовая глубина : 8 бит
Тип развёртки : Прогрессивная
Бит/(Пиксели*Кадры) : 0.209
Размер потока : 618 Мбайт (83%)
Библиотека кодирования : x264 core 159 r2991 1771b55
Настройки программы : cabac=1 / ref=10 / deblock=1:-2:-1 / analyse=0x3:0x113 / me=umh / subme=10 / psy=1 / psy_rd=1.00:0.00 / mixed_ref=1 / me_range=32 / chroma_me=1 / trellis=2 / 8x8dct=1 / cqm=0 / deadzone=21,11 / fast_pskip=1 / chroma_qp_offset=-2 / threads=6 / lookahead_threads=1 / sliced_threads=0 / nr=0 / decimate=0 / interlaced=0 / bluray_compat=0 / constrained_intra=0 / bframes=8 / b_pyramid=2 / b_adapt=2 / b_bias=0 / direct=3 / weightb=1 / open_gop=0 / weightp=2 / keyint=250 / keyint_min=25 / scenecut=40 / intra_refresh=0 / rc=2pass / mbtree=0 / bitrate=1084 / ratetol=1.0 / qcomp=0.60 / qpmin=0 / qpmax=69 / qpstep=4 / cplxblur=20.0 / qblur=0.5 / ip_ratio=1.40 / pb_ratio=1.30 / aq=1:1.00
Default : Да
Forced : Нет

Аудио
Идентификатор : 2
Формат : AC-3
Формат/Информация : Audio Coding 3
Коммерческое название : Dolby Digital
Идентификатор кодека : A_AC3
Продолжительность : 1 ч. 21 м.
Вид битрейта : Постоянный
Битрейт : 192 Кбит/сек
Каналы : 2 канала
ChannelLayout : L R
Частота : 48,0 КГц
Частота кадров : 31,250 кадров/сек (1536 SPF)
Метод сжатия : С потерями
Размер потока : 112 Мбайт (15%)
Default : Да
Forced : Нет


Не забывайте говорить Спасибо. Не уходите с раздачи!   
Торрент: Зарегистрирован [25 мар 2020, 11:57]
Статус:
 
.torrent скачан: 70 раз
Хэш: 3f57cbf904e423c4a8f916ed05afcd391c5d8d6a
Размер: 744.53 МБ (780 694 758 байт)
   Стать Автором раздачи
   
Цитата

Вернуться в Кино СССР (Rips)

Кто сейчас на конференции

Сейчас эту тему просматривают: нет зарегистрированных пользователей и гости: 1