Камуфляж и шпионаж / Spies in Disguise (2019) BDRemux 1080p от селезень | iTunes

 Статистика раздачи 
Размер: 20.56 ГБ   |  Зарегистрирован: 13 мар 2020, 04:52   |   .torrent скачан: 2068 раз
Сидеров: 155  [ 0 байт/сек ]     Личеров: 52  [ 0 байт/сек ]  
  
Аватара пользователя
Главный редактор
Главный редактор
 
Раздал: 90.01 ТБ
Скачал: 3.78 ТБ
Ратио: 24.248
Сообщения: 291037
Стаж: 9 лет 7 месяцев 12 дней
Откуда: Санкт-Петербург

Информация о фильме
Название: Камуфляж и шпионаж
Оригинальное название: Spies in Disguise
Год выхода: 2019
Жанр: Мультфильм, анимационный, фантастика, боевик, комедия, приключения, семейный
Режиссер: Ник Бруно, Трой Квон
В ролях: Карен Гиллан, Рэйчел Броснахэн, Том Холланд, Уилл Смит, Рашида Джонс, Бен Мендельсон, Риба МакИнтайр, Стефания Спампинато, Маси Ока, Карла Хименес, D.J. Халед



О фильме: Супершпион Лэнс Стерлинг — лучший в своём деле. Он способен проникнуть на любой объект, победить любого злодея и соблазнить любую женщину. В опасной профессии ему помогают разные гаджеты, которые для него собирает Уолтер. Но человеческая форма — не самый идеальный вариант для шпионажа, и верный изобретатель придумывает решение и превращает Лэнса в голубя. Ведь этих городских птиц никто не замечает, а следовательно, они могут следить за кем угодно. Только вот Лэнса такой поворот не устраивает.

Страна: США
Студия: Twentieth Century Fox, Blue Sky Studios, Chernin Entertainment
Продолжительность: 01:41:51
Перевод: Дублированный | iTunes

Качество: BDRemux 1080p
Видео: MPEG-4 AVC, 1920x1080, 24.0 Mbit/s, 23.976 fps
Аудио #01: 48 kHz, AC3, 5.1, 384 Kbps | iTunes | RUS |
Аудио #02: 48 kHz, DTS-HD MA, 7.1, 4541 Kbps | Оригинал | ENG |
Субтитры: Русские (Forced, full), английские



General
Unique ID : 298984493581130334458309723749475109839 (0xE0EE51A40E28293865164FC1699F4BCF)
Complete name : E:Video111Spies.in.Disguise.2019.BDREMUX.1080p.seleZen.mkv
Format : Matroska
Format version : Version 4
File size : 20.6 GiB
Duration : 1 h 41 min
Overall bit rate mode : Variable
Overall bit rate : 28.9 Mb/s
Movie name : Spies In Disguise 2019 from селезень
Encoded date : UTC 2020-03-13 01:48:54
Writing application : mkvmerge v40.0.0 ('Old Town Road + Pony') 64-bit
Writing library : libebml v1.3.9 + libmatroska v1.5.2

Video
ID : 1
Format : AVC
Format/Info : Advanced Video Codec
Format profile : High@L4.1
Format settings : CABAC / 4 Ref Frames
Format settings, CABAC : Yes
Format settings, Reference : 4 frames
Codec ID : V_MPEG4/ISO/AVC
Duration : 1 h 41 min
Bit rate mode : Variable
Bit rate : 24.0 Mb/s
Maximum bit rate : 34.0 Mb/s
Width : 1 920 pixels
Height : 1 080 pixels
Display aspect ratio : 16:9
Frame rate mode : Constant
Frame rate : 23.976 (23976/1000) FPS
Original frame rate : 23.976 (24000/1001) FPS
Color space : YUV
Chroma subsampling : 4:2:0
Bit depth : 8 bits
Scan type : Progressive
Bits/(Pixel*Frame) : 0.482
Stream size : 17.1 GiB (83%)
Language : English
Default : Yes
Forced : No

Audio #1
ID : 2
Format : AC-3
Format/Info : Audio Coding 3
Commercial name : Dolby Digital
Codec ID : A_AC3
Duration : 1 h 41 min
Bit rate mode : Constant
Bit rate : 384 kb/s
Channel(s) : 6 channels
Channel layout : L R C LFE Ls Rs
Sampling rate : 48.0 kHz
Frame rate : 31.250 FPS (1536 SPF)
Compression mode : Lossy
Stream size : 280 MiB (1%)
Title : iTunes
Language : Russian
Service kind : Complete Main
Default : Yes
Forced : Yes

Audio #2
ID : 3
Format : DTS ES XLL
Format/Info : Digital Theater Systems
Commercial name : DTS-HD Master Audio
Codec ID : A_DTS
Duration : 1 h 41 min
Bit rate mode : Variable
Bit rate : 4 541 kb/s
Channel(s) : 8 channels
Channel layout : C L R Ls Rs LFE Lb Rb
Sampling rate : 48.0 kHz
Frame rate : 93.750 FPS (512 SPF)
Bit depth : 24 bits
Compression mode : Lossless
Stream size : 3.23 GiB (16%)
Title : Original
Language : English
Default : No
Forced : No

Text #1
ID : 4
Format : UTF-8
Codec ID : S_TEXT/UTF8
Codec ID/Info : UTF-8 Plain Text
Duration : 1 h 40 min
Bit rate : 2 b/s
Count of elements : 48
Stream size : 1.85 KiB (0%)
Title : Forced
Language : Russian
Default : Yes
Forced : Yes

Text #2
ID : 5
Format : UTF-8
Codec ID : S_TEXT/UTF8
Codec ID/Info : UTF-8 Plain Text
Duration : 1 h 40 min
Bit rate : 79 b/s
Count of elements : 1455
Stream size : 58.7 KiB (0%)
Title : Full
Language : Russian
Default : No
Forced : No

Text #3
ID : 6
Format : UTF-8
Codec ID : S_TEXT/UTF8
Codec ID/Info : UTF-8 Plain Text
Duration : 1 h 31 min
Bit rate : 60 b/s
Count of elements : 1573
Stream size : 40.7 KiB (0%)
Title : Full
Language : English
Default : No
Forced : No

Text #4
ID : 7
Format : UTF-8
Codec ID : S_TEXT/UTF8
Codec ID/Info : UTF-8 Plain Text
Duration : 1 h 41 min
Bit rate : 67 b/s
Count of elements : 1905
Stream size : 50.0 KiB (0%)
Title : SDH
Language : English
Default : No
Forced : No

Menu
00:00:00.000 : en:Chapter 01
00:04:09.499 : en:Chapter 02
00:06:54.497 : en:Chapter 03
00:11:53.838 : en:Chapter 04
00:15:31.013 : en:Chapter 05
00:20:35.484 : en:Chapter 06
00:23:20.857 : en:Chapter 07
00:26:42.434 : en:Chapter 08
00:30:59.524 : en:Chapter 09
00:36:06.581 : en:Chapter 10
00:41:34.950 : en:Chapter 11
00:45:41.947 : en:Chapter 12
00:49:57.786 : en:Chapter 13
00:53:58.902 : en:Chapter 14
00:56:34.307 : en:Chapter 15
01:00:06.769 : en:Chapter 16
01:08:46.914 : en:Chapter 17
01:12:51.784 : en:Chapter 18
01:17:34.274 : en:Chapter 19
01:20:18.939 : en:Chapter 20
01:23:19.077 : en:Chapter 21
01:26:05.243 : en:Chapter 22
01:29:47.173 : en:Chapter 23
01:33:08.874 : en:Chapter 24


Релиз от:

Не забывайте говорить Спасибо. Не уходите с раздачи!   
Торрент: Зарегистрирован [13 мар 2020, 04:52]
Статус:
Проверен
 
.torrent скачан: 2068 раз
Хэш: df6aa7708682e56aa0a5791fab751e8ad3a8bd5d
Размер: 20.56 ГБ (22 074 378 226 байт)
   Стать Автором раздачи
   
Цитата
  • Похожие торренты
    Ответы
    Просмотры
    Последнее сообщение

Вернуться в Полнометражные

Кто сейчас на конференции

Сейчас эту тему просматривают: нет зарегистрированных пользователей и гости: 1