В осаде 2: Тёмная территория / Under Siege 2: Dark Territory (1995) BDRip 1080p | P, P2, A

 Статистика раздачи 
Размер: 12.42 ГБ   |  Зарегистрирован: 14 фев 2020, 09:46   |   .torrent скачан: 71 раз
Сидеров: 17  [ 0 байт/сек ]     Личеров: 13  [ 0 байт/сек ]  
  
Аватара пользователя
Главный редактор
Главный редактор
Я на сайте
 
Раздал: 90.01 ТБ
Скачал: 3.78 ТБ
Ратио: 24.248
Сообщения: 285796
Стаж: 9 лет 3 месяца 28 дней
Откуда: Санкт-Петербург

Название: В осаде 2: Тёмная территория
Оригинальное название: Under Siege 2: Dark Territory
Год выхода: 1995
Производство: США / Warner Bros., Regency Enterprises, Seagal/Nasso Productions
Жанр: Боевик, триллер, драма
Перевод: Многоголосый закадровый, двухголосый закадровый, авторский одноголосый
Продолжительность: 01:39:39
Режиссер: Джеф Мерфи
В ролях: Стивен Сигал, Эрик Богосян, Эверет МакГилл, Кэтрин Хейгл, Моррис Честнат, Питер Грин, Пэтрик Килпэтрик, Скотт Сауэрс, Афифи Алауи, Энди Романо, Бренда Бакки, Сандра Тейлор, Джонатан Бэнкс, Ройс Д. Эпплгейт, Ник Манкузо, Кристофер Дарга, Дон Блэйкли, Дейл Дай, Джеймс Кларк, Стэн Гарнер, Рик Уайлз, Кертвуд Смит, Дэнис Л. Стюарт, Джим Диркер, Тодд О. Расселл, Уоррен Табата, Джулиус Р. Нассо, Филлис Дэвис, Джинджер Льюис, Грег Коллинз, Кен Вийера, Рен Т. Браун, Д.С. Дуглас, Катрин МакНил, Фрэнк Роман, Эл Сапьенза, Дженнифер Старр, Пин Ву, Энтони Бэкман, Генри Кинги, Лана Малинка
Описание: Террористы захватывают поезд для того, чтобы развернуть на нем передвижной пункт управления засекреченным военным спутником США, на котором установлено оружие огромной разрушительной силы, и грозят взрывом на Восточном побережье Америки. Случайно оказавшийся среди пассажиров морской пехотинец Кейси Рэйбек не стерпел издевательств преступников…
Формат: MKV
Качество: BDRip 1080p
Видео : AVC/X.264, 1912x1080, ~14.0 Mb/s
Аудио 01: AC3, 2 ch, 192 kb/s - Русский MVO (НТВ-ТНТ)
Аудио 02: AC3, 6 ch, 640 kb/s - Русский MVO (Twister)
Аудио 03: AC3, 6 ch, 448 kb/s - Русский DVO (ОРТ)
Аудио 04: AC3, 2 ch, 192 kb/s - Русский MVO (ТВЦ)
Аудио 05: AC3, 2 ch, 192 kb/s - Русский MVO (РТР)
Аудио 06: AC3, 2 ch, 192 kb/s - Русский AVO (А.Гаврилов - ранний)
Аудио 07: AC3, 2 ch, 192 kb/s - Русский AVO (А.Гаврилов - поздний)
Аудио 08: AC3, 2 ch, 192 kb/s - Русский AVO (Горчаков)
Аудио 09: AC3, 2 ch, 192 kb/s - Русский AVO (Живов)
Аудио 10: AC3, 6 ch, 384 kb/s - Украинский DVO (1+1)
Аудио 11: AC3, 6 ch, 384 kb/s - Украинский MVO (ICTV)
Аудио 12: AC3, 6 ch, 640 kb/s - Английский
Субтитры: Русские, английские

General
Unique ID : 148971186502039525282331288100568093915 (0x7012CE9092D461F65A29697899F4D4DB)
Complete name : D:Download / В осаде 2 - Тёмная территория Under Siege 2 - Dark Territory (1995).mkv
Format : Matroska
Format version : Version 4
File size : 12.4 GiB
Duration : 1 h 39 min
Overall bit rate : 17.8 Mb/s
Movie name : В осаде 2 - Тёмная территория / Under Siege 2 - Dark Territory (1995)
Encoded date : UTC 2020-02-13 20:43:47
Writing application : mkvmerge v43.0.0 ('The Quartermaster') 64-bit
Writing library : libebml v1.3.10 + libmatroska v1.5.2
Cover : Yes
Attachments : Cover.jpg
Video
ID : 1
Format : AVC
Format/Info : Advanced Video Codec
Format profile : High@L4.1
Format settings : CABAC / 4 Ref Frames
Format settings, CABAC : Yes
Format settings, Reference fra : 4 frames
Codec ID : V_MPEG4/ISO/AVC
Duration : 1 h 39 min
Bit rate : 14.0 Mb/s
Width : 1 912 pixels
Height : 1 080 pixels
Display aspect ratio : 16:9
Frame rate mode : Constant
Frame rate : 23.976 (24000/1001) FPS
Color space : YUV
Chroma subsampling : 4:2:0
Bit depth : 8 bits
Scan type : Progressive
Bits/(Pixel*Frame) : 0.283
Stream size : 9.74 GiB (78%)
Title : Under Siege 2 - Dark Territory
Writing library : x264 core 128 r2216kMod 198a7ea
Encoding settings : cabac=1 / ref=4 / deblock=1:-3:-3 / analyse=0x3:0x133 / me=umh / subme=11 / psy=1 / fade_compensate=0.00 / psy_rd=1.00:0.30 / mixed_ref=1 / me_range=32 / chroma_me=1 / trellis=2 / 8x8dct=1 / cqm=0 / deadzone=21,11 / fast_pskip=0 / chroma_qp_offset=-4 / threads=12 / lookahead_threads=2 / sliced_threads=0 / nr=0 / decimate=0 / interlaced=0 / bluray_compat=0 / constrained_intra=0 / bframes=10 / b_pyramid=2 / b_adapt=2 / b_bias=0 / direct=3 / weightb=1 / open_gop=0 / weightp=2 / keyint=240 / keyint_min=23 / scenecut=40 / intra_refresh=0 / rc_lookahead=100 / rc=2pass / mbtree=1 / bitrate=14000 / ratetol=1.0 / qcomp=0.70 / qpmin=0 / qpmax=69 / qpstep=4 / cplxblur=20.0 / qblur=0.5 / ip_ratio=1.40 / aq=3:1.00
Language : English
Default : Yes
Forced : No
Audio #1
ID : 2
Format : AC-3
Format/Info : Audio Coding 3
Commercial name : Dolby Digital
Codec ID : A_AC3
Duration : 1 h 39 min
Bit rate mode : Constant
Bit rate : 192 kb/s
Channel(s) : 2 channels
Channel layout : L R
Sampling rate : 48.0 kHz
Frame rate : 31.250 FPS (1536 SPF)
Compression mode : Lossy
Stream size : 137 MiB (1%)
Title : MVO (НТВ-ТНТ)
Language : Russian
Service kind : Complete Main
Default : Yes
Forced : No
Audio #2
ID : 3
Format : AC-3
Format/Info : Audio Coding 3
Commercial name : Dolby Digital
Codec ID : A_AC3
Duration : 1 h 39 min
Bit rate mode : Constant
Bit rate : 640 kb/s
Channel(s) : 6 channels
Channel layout : L R C LFE Ls Rs
Sampling rate : 48.0 kHz
Frame rate : 31.250 FPS (1536 SPF)
Compression mode : Lossy
Stream size : 456 MiB (4%)
Title : MVO (Twister)
Language : Russian
Service kind : Complete Main
Default : No
Forced : No
Audio #3
ID : 4
Format : AC-3
Format/Info : Audio Coding 3
Commercial name : Dolby Digital
Codec ID : A_AC3
Duration : 1 h 39 min
Bit rate mode : Constant
Bit rate : 448 kb/s
Channel(s) : 6 channels
Channel layout : L R C LFE Ls Rs
Sampling rate : 48.0 kHz
Frame rate : 31.250 FPS (1536 SPF)
Compression mode : Lossy
Stream size : 319 MiB (3%)
Title : DVO (ОРТ)
Language : Russian
Service kind : Complete Main
Default : No
Forced : No
Audio #4
ID : 5
Format : AC-3
Format/Info : Audio Coding 3
Commercial name : Dolby Digital
Codec ID : A_AC3
Duration : 1 h 39 min
Bit rate mode : Constant
Bit rate : 192 kb/s
Channel(s) : 2 channels
Channel layout : L R
Sampling rate : 48.0 kHz
Frame rate : 31.250 FPS (1536 SPF)
Compression mode : Lossy
Stream size : 137 MiB (1%)
Title : MVO (ТВЦ)
Language : Russian
Service kind : Complete Main
Default : No
Forced : No
Audio #5
ID : 6
Format : AC-3
Format/Info : Audio Coding 3
Commercial name : Dolby Digital
Codec ID : A_AC3
Duration : 1 h 39 min
Bit rate mode : Constant
Bit rate : 192 kb/s
Channel(s) : 2 channels
Channel layout : L R
Sampling rate : 48.0 kHz
Frame rate : 31.250 FPS (1536 SPF)
Compression mode : Lossy
Stream size : 137 MiB (1%)
Title : MVO (РТР)
Language : Russian
Service kind : Complete Main
Default : No
Forced : No
Audio #6
ID : 7
Format : AC-3
Format/Info : Audio Coding 3
Commercial name : Dolby Digital
Codec ID : A_AC3
Duration : 1 h 39 min
Bit rate mode : Constant
Bit rate : 192 kb/s
Channel(s) : 2 channels
Channel layout : L R
Sampling rate : 48.0 kHz
Frame rate : 31.250 FPS (1536 SPF)
Compression mode : Lossy
Stream size : 137 MiB (1%)
Title : AVO (А.Гаврилов - ранний)
Language : Russian
Service kind : Complete Main
Default : No
Forced : No
Audio #7
ID : 8
Format : AC-3
Format/Info : Audio Coding 3
Commercial name : Dolby Digital
Codec ID : A_AC3
Duration : 1 h 39 min
Bit rate mode : Constant
Bit rate : 192 kb/s
Channel(s) : 2 channels
Channel layout : L R
Sampling rate : 48.0 kHz
Frame rate : 31.250 FPS (1536 SPF)
Compression mode : Lossy
Stream size : 137 MiB (1%)
Title : AVO (А.Гаврилов - поздний)
Language : Russian
Service kind : Complete Main
Default : No
Forced : No
Audio #8
ID : 9
Format : AC-3
Format/Info : Audio Coding 3
Commercial name : Dolby Digital
Codec ID : A_AC3
Duration : 1 h 39 min
Bit rate mode : Constant
Bit rate : 192 kb/s
Channel(s) : 2 channels
Channel layout : L R
Sampling rate : 48.0 kHz
Frame rate : 31.250 FPS (1536 SPF)
Compression mode : Lossy
Stream size : 137 MiB (1%)
Title : AVO (Горчаков)
Language : Russian
Service kind : Complete Main
Default : No
Forced : No
Audio #9
ID : 10
Format : AC-3
Format/Info : Audio Coding 3
Commercial name : Dolby Digital
Codec ID : A_AC3
Duration : 1 h 39 min
Bit rate mode : Constant
Bit rate : 192 kb/s
Channel(s) : 2 channels
Channel layout : L R
Sampling rate : 48.0 kHz
Frame rate : 31.250 FPS (1536 SPF)
Compression mode : Lossy
Stream size : 137 MiB (1%)
Title : AVO (Живов)
Language : Russian
Service kind : Complete Main
Default : No
Forced : No
Audio #10
ID : 11
Format : AC-3
Format/Info : Audio Coding 3
Commercial name : Dolby Digital
Codec ID : A_AC3
Duration : 1 h 39 min
Bit rate mode : Constant
Bit rate : 384 kb/s
Channel(s) : 6 channels
Channel layout : L R C LFE Ls Rs
Sampling rate : 48.0 kHz
Frame rate : 31.250 FPS (1536 SPF)
Compression mode : Lossy
Stream size : 274 MiB (2%)
Title : DVO (1+1)
Language : Ukrainian
Service kind : Complete Main
Default : No
Forced : No
Audio #11
ID : 12
Format : AC-3
Format/Info : Audio Coding 3
Commercial name : Dolby Digital
Codec ID : A_AC3
Duration : 1 h 39 min
Bit rate mode : Constant
Bit rate : 384 kb/s
Channel(s) : 6 channels
Channel layout : L R C LFE Ls Rs
Sampling rate : 48.0 kHz
Frame rate : 31.250 FPS (1536 SPF)
Compression mode : Lossy
Stream size : 274 MiB (2%)
Title : MVO (ICTV)
Language : Ukrainian
Service kind : Complete Main
Default : No
Forced : No
Audio #12
ID : 13
Format : AC-3
Format/Info : Audio Coding 3
Commercial name : Dolby Digital
Codec ID : A_AC3
Duration : 1 h 39 min
Bit rate mode : Constant
Bit rate : 640 kb/s
Channel(s) : 6 channels
Channel layout : L R C LFE Ls Rs
Sampling rate : 48.0 kHz
Frame rate : 31.250 FPS (1536 SPF)
Compression mode : Lossy
Stream size : 456 MiB (4%)
Title : Original
Language : English
Service kind : Complete Main
Default : No
Forced : No
Text #1
ID : 14
Format : UTF-8
Codec ID : S_TEXT/UTF8
Codec ID/Info : UTF-8 Plain Text
Duration : 1 h 35 min
Bit rate : 76 b/s
Count of elements : 900
Stream size : 53.7 KiB (0%)
Title : Full
Language : Russian
Default : No
Forced : No
Text #2
ID : 15
Format : UTF-8
Codec ID : S_TEXT/UTF8
Codec ID/Info : UTF-8 Plain Text
Duration : 1 h 36 min
Bit rate : 45 b/s
Count of elements : 1011
Stream size : 31.9 KiB (0%)
Title : Full
Language : English
Default : No
Forced : No
Menu
00:00:00.000 : en:Damn thing works
00:06:08.034 : en:Not trained
00:10:12.236 : en:Those who wait
00:11:41.826 : en:Hostile takeover
00:13:26.305 : en:Strong stuff
00:15:46.320 : en:Exercise restraint
00:18:26.939 : en:Loco secure
00:20:38.445 : en:Dining car trouble
00:22:50.994 : en:Captor speaking
00:25:06.796 : en:Persuasion
00:27:42.869 : en:View from the roof
00:31:07.073 : en:A demonstration
00:37:55.356 : en:Briefing Bates
00:40:26.799 : en:Boom!
00:44:07.436 : en:Still smarter
00:47:53.537 : en:Under fire
00:53:46.514 : en:Terrorist profile
00:55:01.172 : en:Bait for the best
00:58:54.197 : en:Making a bomb
01:02:32.832 : en:Double play
01:04:04.048 : en:Putting on brakes
01:08:57.383 : en:Countdown
01:12:01.191 : en:Board moving train
01:14:14.408 : en:To the rescue
01:17:52.417 : en:Target shooting
01:22:09.299 : en:How to fly
01:25:11.648 : en:Hand to hand
01:32:07.063 : en:A high-tech bullet
01:33:35.818 : en:Head-on!
01:34:45.179 : en:Last of a lunatic
01:36:26.781 : en:Safe


Не забывайте говорить Спасибо. Не уходите с раздачи!   
Торрент: Зарегистрирован [14 фев 2020, 09:46]
Статус:
Проверен
 
.torrent скачан: 71 раз
Хэш: 543371184984ca4a5b32d6b270432e233b1b3236
Размер: 12.42 ГБ (13 334 033 437 байт)
   Стать Автором раздачи
   
Цитата

Вернуться в Зарубежное кино (HDRip, DVDRip)

Кто сейчас на конференции

Сейчас эту тему просматривают: нет зарегистрированных пользователей и гости: 1