Ford против Ferrari / Ford v Ferrari (2019) BDRip-AVC от ExKinoRay | iTunes

 Статистика раздачи 
Размер: 2.45 ГБ   |  Зарегистрирован: 14 фев 2020, 01:41   |   .torrent скачан: 1651 раз
Сидеров: 367  [ 0 байт/сек ]     Личеров: 85  [ 0 байт/сек ]  
  
Аватара пользователя
Главный редактор
Главный редактор
 
Раздал: 90.01 ТБ
Скачал: 3.78 ТБ
Ратио: 24.248
Сообщения: 285866
Стаж: 9 лет 4 месяца 1 день
Откуда: Санкт-Петербург

Название: Ford против Ferrari
Оригинальное название: Ford v Ferrari
Год выхода: 2019
Жанр: Биография, спорт, драма, боевик
Режиссер: Джеймс Мэнголд
В ролях: Кристиан Бэйл, Мэтт Дэймон, Катрина Балф, Трэйси Леттс, Джон Бернтал, Ноа Джуп, Джош Лукас, Ремо Джироне, Рэй Маккиннон, Джей Джей Филд
Описание: Фильм рассказывает о взаимоотношениях американского автомобильного конструктора Кэрролла Шелби и отважного британского гонщика Кена Майлза, которые вместе бросили вызов корпорациям и собственным демонам, чтобы создать абсолютно новый спорткар, который смог конкурировать с Ferrari на чемпионате мира, прошедшем во Франции в середине 1960-х.


Страна: США, Франция
Студия: Chernin Entertainment, Twentieth Century Fo
Продолжительность: 02:32:35
Перевод: Дублированный | iTunes

Формат: MKV
Качество: BDRip-AVC
Видео: AVC/H.264, 1024x428, ~1920 Кbps, 23.976 fps
Аудио : 48 kHz, AC3, 5.1, 384 Kbps | iTunes | RUS |
Субтитры: Русские (форсированные (на итальянскую речь), полные (iTunes, blindAvocado)

General
Unique ID : 225042448434732225990569469112330646550 (0xA94D99595DB2F25E9DC6E42BA25E7416)
Complete name : F:Ford.v.Ferrari.2019.BDRip.AVC.ExKinoRay.mkv
Format : Matroska
Format version : Version 2
File size : 2.45 GiB
Duration : 2 h 32 min
Overall bit rate : 2 301 kb/s
Movie name : Ford v Ferrari 2019 from ExKinoRay
Encoded date : UTC 2020-02-13 22:11:05
Writing application : mkvmerge v5.6.0 ('Kenya Kane') built on May 27 2012 16:44:04
Writing library : libebml v1.2.3 + libmatroska v1.3.0
Attachments : front.jpg

Video
ID : 1
Format : AVC
Format/Info : Advanced Video Codec
Format profile : High@L4.1
Format settings, CABAC : Yes
Format settings, ReFrames : 12 frames
Codec ID : V_MPEG4/ISO/AVC
Duration : 2 h 32 min
Bit rate : 1 920 kb/s
Width : 1 024 pixels
Height : 428 pixels
Display aspect ratio : 2.40:1
Frame rate mode : Constant
Frame rate : 23.976 (23976/1000) FPS
Color space : YUV
Chroma subsampling : 4:2:0
Bit depth : 8 bits
Scan type : Progressive
Bits/(Pixel*Frame) : 0.183
Stream size : 1.99 GiB (81%)
Title : Enigma
Writing library : x264 core 152 r2851 ba24899
Encoding settings : cabac=1 / ref=12 / deblock=1:-2:-2 / analyse=0x3:0x113 / me=umh / subme=10 / psy=1 / psy_rd=1.05:0.05 / mixed_ref=1 / me_range=32 / chroma_me=1 / trellis=2 / 8x8dct=1 / cqm=0 / deadzone=21,11 / fast_pskip=0 / chroma_qp_offset=-3 / threads=12 / lookahead_threads=3 / sliced_threads=0 / nr=0 / decimate=0 / interlaced=0 / bluray_compat=0 / constrained_intra=0 / bframes=10 / b_pyramid=2 / b_adapt=2 / b_bias=0 / direct=3 / weightb=1 / open_gop=0 / weightp=2 / keyint=240 / keyint_min=23 / scenecut=40 / intra_refresh=0 / rc=2pass / mbtree=0 / bitrate=1920 / ratetol=1.0 / qcomp=0.60 / qpmin=0 / qpmax=51 / qpstep=4 / cplxblur=20.0 / qblur=0.5 / ip_ratio=1.40 / pb_ratio=1.30 / aq=1:1.00
Language : English
Default : Yes
Forced : No
Color range : Limited
Color primaries : BT.709
Transfer characteristics : BT.709
Matrix coefficients : BT.709

Audio
ID : 2
Format : AC-3
Format/Info : Audio Coding 3
Mode extension : CM (complete main)
Format settings, Endianness : Big
Codec ID : A_AC3
Duration : 2 h 32 min
Bit rate mode : Constant
Bit rate : 384 kb/s
Channel(s) : 6 channels
Channel positions : Front: L C R, Side: L R, LFE
Sampling rate : 48.0 kHz
Frame rate : 31.250 FPS (1536 spf)
Compression mode : Lossy
Stream size : 419 MiB (17%)
Title : Dub (iTunes)
Language : Russian
Default : Yes
Forced : No

Text #1
ID : 3
Format : UTF-8
Codec ID : S_TEXT/UTF8
Codec ID/Info : UTF-8 Plain Text
Title : Forced
Language : Russian
Default : Yes
Forced : No

Text #2
ID : 4
Format : UTF-8
Codec ID : S_TEXT/UTF8
Codec ID/Info : UTF-8 Plain Text
Title : Full (iTunes)
Language : Russian
Default : No
Forced : No

Text #3
ID : 5
Format : UTF-8
Codec ID : S_TEXT/UTF8
Codec ID/Info : UTF-8 Plain Text
Title : Full (blindAvocado)
Language : Russian
Default : No
Forced : No

Menu
00:00:00.000 : en:Chapter 01
00:04:45.618 : en:Chapter 02
00:07:32.535 : en:Chapter 03
00:10:02.810 : en:Chapter 04
00:15:39.313 : en:Chapter 05
00:20:15.172 : en:Chapter 06
00:21:39.798 : en:Chapter 07
00:26:00.892 : en:Chapter 08
00:31:57.874 : en:Chapter 09
00:34:09.756 : en:Chapter 10
00:39:13.267 : en:Chapter 11
00:42:06.899 : en:Chapter 12
00:45:57.004 : en:Chapter 13
00:48:38.665 : en:Chapter 14
00:51:22.079 : en:Chapter 15
00:55:03.675 : en:Chapter 16
00:57:50.800 : en:Chapter 17
01:00:27.040 : en:Chapter 18
01:06:33.489 : en:Chapter 19
01:11:59.815 : en:Chapter 20
01:16:13.777 : en:Chapter 21
01:19:30.515 : en:Chapter 22
01:24:18.762 : en:Chapter 23
01:29:24.984 : en:Chapter 24
01:33:16.173 : en:Chapter 25
01:38:11.302 : en:Chapter 26
01:40:57.468 : en:Chapter 27
01:43:23.322 : en:Chapter 28
01:45:49.217 : en:Chapter 29
01:50:38.965 : en:Chapter 30
01:53:38.353 : en:Chapter 31
01:57:47.602 : en:Chapter 32
02:00:16.667 : en:Chapter 33
02:05:22.890 : en:Chapter 34
02:09:18.375 : en:Chapter 35
02:12:01.496 : en:Chapter 36
02:15:26.409 : en:Chapter 37
02:18:23.128 : en:Chapter 38
02:20:46.438 : en:Chapter 39
02:26:27.612 : en:Chapter 40



Релиз от:

Автор релиза:
Не забывайте говорить Спасибо. Не уходите с раздачи!   
Торрент: Зарегистрирован [14 фев 2020, 01:41]
Статус:
Проверен
 
.torrent скачан: 1651 раз
Хэш: 95c24b67a6513e6a50066f9fa01f3a984dab0168
Размер: 2.45 ГБ (2 633 830 299 байт)
   Стать Автором раздачи
   
Цитата

Вернуться в Зарубежное кино (HDRip, DVDRip)

Кто сейчас на конференции

Сейчас эту тему просматривают: нет зарегистрированных пользователей и гости: 1