Достать ножи / Knives Out (2019) WEB-DL 720p | P, A

 Статистика раздачи 
Размер: 6.4 ГБ   |  Зарегистрирован: 13 фев 2020, 23:55   |   .torrent скачан: 5938 раз
Сидеров: 448  [ 0 байт/сек ]     Личеров: 28  [ 0 байт/сек ]  
  
Аватара пользователя
Главный редактор
Главный редактор
 
Раздал: 90.01 ТБ
Скачал: 3.78 ТБ
Ратио: 24.248
Сообщения: 285866
Стаж: 9 лет 4 месяца 1 день
Откуда: Санкт-Петербург
СообщениеДобавлено: 13 фев 2020, 23:55


Информация о фильме
Название: Достать ножи
Оригинальное название: Knives Out
Год выхода: 2019
Жанр: Детектив, комедия, драма, криминал
Режиссер: Райан Джонсон
В ролях: Дэниэл Крэйг, Ана де Армас, Крис Эванс, Джейми Ли Кёртис, Майкл Шеннон, Дон Джонсон, Тони Коллетт, Лакит Стэнфилд, Кристофер Пламмер, Кэтрин Лэнгфорд, Джейден Мартелл, Рики Линдхоум, Эди Паттерсон, Ноа Сеган

О фильме:
Когда сразу после празднования 85-летия известного автора криминальных романов Харлана Тромби виновника торжества находят мёртвым, за расследование берётся обаятельный и дотошный частный детектив Бенуа Блан. Ему предстоит распутать тугую сеть уловок и корыстной лжи, которой его опутывают члены неблагополучной семьи Харлана и преданный ему персонал.



Страна: США
Студия: Lionsgate, Media Rights Capital (MRC), T-Street See
Продолжительность: 02:10:06
Перевод: Профессиональный многоголосый, Авторский

Файл
Кодек: AVC
Качество: WEB-DL 720p | AMZN
Видео: MPEG-4 AVC, 5506 Kбит/с, 1280x688, 23.976 кадр/с
Аудио #1: Русский (АС3, 6 ch, 448 Кбит/с, 48.0 KHz) Профессиональный (многоголосый, закадровый) HDRezka Studio
Аудио #2: Русский (АС3, 6 ch, 448 Кбит/с, 48.0 KHz) Авторский (одноголосый, закадровый) Вячеслав Замез
Аудио #3: Английский (E-АС3, 6 ch, 640 Кбит/с, 48.0 KHz)
Субтитры: Русские (Forced, Full), английские
► Без Рекламы!
Источник: Knives.Out.2019.720p.AMZN.WEB-DL.DDP5.1.H.264-NTG
General
Unique ID : 254247988949580925372344639046884110031 (0xBF4661AB6A09C2DB8C5B51258EB1AECF)
Complete name : Knives.Out.2019.AMZN.WEB-DL.720p.mkv
Format : Matroska
Format version : Version 4
File size : 6.40 GiB
Duration : 2 h 10 min
Overall bit rate : 7 045 kb/s
Encoded date : UTC 2020-02-13 20:20:54
Writing application : mkvmerge v7.1.0 ('Good Love') 64bit built on Jul 27 2014 13:06:55
Writing library : libebml v1.3.0 + libmatroska v1.4.1

Video
ID : 1
Format : AVC
Format/Info : Advanced Video Codec
Format profile : High@L3.1
Format settings : CABAC / 4 Ref Frames
Format settings, CABAC : Yes
Format settings, Reference fra : 4 frames
Codec ID : V_MPEG4/ISO/AVC
Duration : 2 h 10 min
Bit rate mode : Constant
Bit rate : 5 506 kb/s
Nominal bit rate : 6 000 kb/s
Width : 1 280 pixels
Height : 688 pixels
Display aspect ratio : 1.85:1
Frame rate mode : Constant
Frame rate : 23.976 (24000/1001) FPS
Color space : YUV
Chroma subsampling : 4:2:0
Bit depth : 8 bits
Scan type : Progressive
Bits/(Pixel*Frame) : 0.261
Stream size : 5.00 GiB (78%)
Language : English
Default : Yes
Forced : No
Color range : Limited
Color primaries : BT.709
Transfer characteristics : BT.709
Matrix coefficients : BT.709

Audio #1
ID : 2
Format : AC-3
Format/Info : Audio Coding 3
Commercial name : Dolby Digital
Codec ID : A_AC3
Duration : 2 h 10 min
Bit rate mode : Constant
Bit rate : 448 kb/s
Channel(s) : 6 channels
Channel layout : L R C LFE Ls Rs
Sampling rate : 48.0 kHz
Frame rate : 31.250 FPS (1536 SPF)
Compression mode : Lossy
Stream size : 417 MiB (6%)
Title : MVO | HDrezka Studio
Language : Russian
Service kind : Complete Main
Default : Yes
Forced : No

Audio #2
ID : 3
Format : AC-3
Format/Info : Audio Coding 3
Commercial name : Dolby Digital
Codec ID : A_AC3
Duration : 2 h 10 min
Bit rate mode : Constant
Bit rate : 448 kb/s
Channel(s) : 6 channels
Channel layout : L R C LFE Ls Rs
Sampling rate : 48.0 kHz
Frame rate : 31.250 FPS (1536 SPF)
Compression mode : Lossy
Stream size : 417 MiB (6%)
Title : zamez
Language : Russian
Service kind : Complete Main
Default : No
Forced : No

Audio #3
ID : 4
Format : E-AC-3
Format/Info : Enhanced AC-3
Commercial name : Dolby Digital Plus
Codec ID : A_EAC3
Duration : 2 h 10 min
Bit rate mode : Constant
Bit rate : 640 kb/s
Channel(s) : 6 channels
Channel layout : L R C LFE Ls Rs
Sampling rate : 48.0 kHz
Frame rate : 31.250 FPS (1536 SPF)
Compression mode : Lossy
Stream size : 596 MiB (9%)
Language : English
Service kind : Complete Main
Default : No
Forced : No

Text #1
ID : 5
Format : UTF-8
Codec ID : S_TEXT/UTF8
Codec ID/Info : UTF-8 Plain Text
Duration : 2 h 4 min
Bit rate : 0 b/s
Count of elements : 11
Stream size : 786 Bytes (0%)
Title : Forced
Language : Russian
Default : Yes
Forced : No

Text #2
ID : 6
Format : UTF-8
Codec ID : S_TEXT/UTF8
Codec ID/Info : UTF-8 Plain Text
Duration : 2 h 4 min
Bit rate : 126 b/s
Count of elements : 1843
Stream size : 115 KiB (0%)
Language : Russian
Default : No
Forced : No

Text #3
ID : 7
Format : UTF-8
Codec ID : S_TEXT/UTF8
Codec ID/Info : UTF-8 Plain Text
Duration : 2 h 2 min
Bit rate : 85 b/s
Count of elements : 2616
Stream size : 76.2 KiB (0%)
Language : English
Default : No
Forced : No

Text #4
ID : 8
Format : UTF-8
Codec ID : S_TEXT/UTF8
Codec ID/Info : UTF-8 Plain Text
Duration : 2 h 2 min
Bit rate : 89 b/s
Count of elements : 2795
Stream size : 79.8 KiB (0%)
Title : SDH
Language : English
Default : No
Forced : No

Menu
00:00:00.000 : en:Studio Logo
00:00:39.000 : en:Scene 2
00:02:16.000 : en:Title Sequence
00:02:21.000 : en:Scene 4
00:06:49.000 : en:Scene 5
00:12:48.000 : en:Scene 6
00:18:31.000 : en:Scene 7
00:25:12.000 : en:Scene 8
00:31:49.000 : en:Scene 9
00:38:52.000 : en:Scene 10
00:43:01.000 : en:Scene 11
00:49:44.000 : en:Scene 12
00:54:28.000 : en:Scene 13
01:00:14.000 : en:Scene 14
01:04:54.000 : en:Scene 15
01:10:26.000 : en:Scene 16
01:15:37.000 : en:Scene 17
01:21:55.000 : en:Scene 18
01:28:50.000 : en:Scene 19
01:36:15.000 : en:Scene 20
01:42:17.000 : en:Scene 21
01:46:54.000 : en:Scene 22
01:52:17.000 : en:Scene 23
02:01:45.000 : en:Scene 24
02:05:13.000 : en:End Credits
Не забывайте говорить Спасибо. Не уходите с раздачи!   
Торрент: Зарегистрирован [13 фев 2020, 23:55]
Статус:
Проверен
 
.torrent скачан: 5938 раз
Хэш: c4a2ddc19b6422431feada10d6b08a3377c18446
Размер: 6.4 ГБ (6 874 583 712 байт)
   Стать Автором раздачи
   
Цитата
  • Похожие торренты
    Ответы
    Просмотры
    Последнее сообщение

Вернуться в Зарубежное кино (HD Video)

Кто сейчас на конференции

Сейчас эту тему просматривают: нет зарегистрированных пользователей и гости: 1