Прекрасный день по соседству / A Beautiful Day in the Neighborhood (2019) WEBRip 1080p | LakeFilms

 Статистика раздачи 
Размер: 4.07 ГБ   |  Зарегистрирован: 14 фев 2020, 08:27   |   .torrent скачан: 1471 раз
Сидеров: 117  [ 0 байт/сек ]     Личеров: 13  [ 0 байт/сек ]  
  
Аватара пользователя
Главный редактор
Главный редактор
 
Раздал: 90.01 ТБ
Скачал: 3.78 ТБ
Ратио: 24.248
Сообщения: 285866
Стаж: 9 лет 4 месяца 1 день
Откуда: Санкт-Петербург

Название: Прекрасный день по соседству
Оригинальное название: A Beautiful Day in the Neighborhood
Год выпуска: 2019
Жанр: Драма, биография
Выпущено: Китай, США, Big Beach Films, Tencent Pictures, TriStar Pictures
Режиссер: Мариэль Хеллер
В ролях: Том Хэнкс, Мэттью Рис, Крис Купер, Сьюзэн Келечи Уотсон, Марианн Планкетт, Энрико Колантони, Уэнди Маккена, Тэмми Бланчард, Ноа Харпстер, Кармен Кьюсак, Келли Дэвис, Кристин Лахти, Мэдди Кормэн, Дэниэл Крелл, Гретхен Кёрнер, Джон Л. Пикок

О фильме: История реальной и необычной дружбы между добродушным ведущим Фредом Роджерсом и прожжённым журналистом Томом Джунодом. Джунод неохотно согласился написать статью о знаменитом телеведущем, которого он считает слишком нежным и мягким. Но неутомимый оптимизм Роджерса постепенно меняет жизнь и взгляды сурового репортёра.



Техданные
Качество: WEBRip (1080p)
Видео: MPEG-4 AVC, ~ 5 018 kb/s, 1920x1040, 23.976 FPS
Аудио: AAC, 2 ch, 317 Кбит/с
Продолжительность: 01:49:06
Перевод: Любительский двухголосый закадровый (LakeFilms)
Присутствует реклама!

General
Unique ID : 235093290132854005400725162862712197764 (0xB0DD521AA640D546F69E83282FA41284)
Complete name : E:A.Beautiful.Day.in.the.Neighborhood.2019.1080p.LakeFilms.mkv
Format : Matroska
Format version : Version 4 / Version 2
File size : 4.07 GiB
Duration : 1 h 49 min
Overall bit rate : 5 338 kb/s
Encoded date : UTC 2020-02-13 22:18:43
Writing application : mkvmerge v40.0.0 ('Old Town Road + Pony') 64-bit
Writing library : libebml v1.3.9 + libmatroska v1.5.2

Video
ID : 1
Format : AVC
Format/Info : Advanced Video Codec
Format profile : Main@L4.1
Format settings : CABAC / 4 Ref Frames
Format settings, CABAC : Yes
Format settings, RefFrames : 4 frames
Codec ID : V_MPEG4/ISO/AVC
Duration : 1 h 49 min
Bit rate : 5 018 kb/s
Width : 1 920 pixels
Height : 1 040 pixels
Display aspect ratio : 1.85:1
Frame rate mode : Constant
Frame rate : 23.976 (24000/1001) FPS
Color space : YUV
Chroma subsampling : 4:2:0
Bit depth : 8 bits
Scan type : Progressive
Bits/(Pixel*Frame) : 0.105
Stream size : 3.82 GiB (94%)
Language : English
Default : Yes
Forced : No
Color range : Limited
Color primaries : BT.709
Transfer characteristics : BT.709
Matrix coefficients : BT.709

Audio
ID : 2
Format : AAC
Format/Info : Advanced Audio Codec
Format profile : LC
Codec ID : A_AAC-2
Duration : 1 h 49 min
Bit rate : 317 kb/s
Channel(s) : 2 channels
Channel positions : Front: L R
Sampling rate : 48.0 kHz
Frame rate : 46.875 FPS (1024 SPF)
Compression mode : Lossy
Stream size : 248 MiB (6%)
Language : English
Default : Yes
Forced : No
Не забывайте говорить Спасибо. Не уходите с раздачи!   
Торрент: Зарегистрирован [14 фев 2020, 08:27]
Статус:
Проверен
 
.torrent скачан: 1471 раз
Хэш: ea80ab6327bdfac7f5075b9689c9788366aa9798
Размер: 4.07 ГБ (4 368 308 156 байт)
   Стать Автором раздачи
   
Цитата
  • Похожие торренты
    Ответы
    Просмотры
    Последнее сообщение

Вернуться в Зарубежное кино (HD Video)

Кто сейчас на конференции

Сейчас эту тему просматривают: нет зарегистрированных пользователей и гости: 1