Малефисента: Владычица тьмы / Maleficent: Mistress of Evil (2019) BDRip 1080p от Ash61 | 3D-Video | halfOU | iTunes

 Статистика раздачи 
Размер: 10.14 ГБ   |  Зарегистрирован: 14 фев 2020, 00:38   |   .torrent скачан: 6560 раз
Сидеров: 156  [ 0 байт/сек ]     Личеров: 15  [ 0 байт/сек ]  
  
Аватара пользователя
Главный редактор
Главный редактор
 
Раздал: 90.01 ТБ
Скачал: 3.78 ТБ
Ратио: 24.248
Сообщения: 291225
Стаж: 9 лет 11 месяцев 1 день
Откуда: Санкт-Петербург




Малефисента: Владычица тьмы
Maleficent: Mistress of Evil



#77Год выпуска: 2019
Страна: США, Великобритания
Жанр: фэнтези, приключения, семейный
Продолжительность: 01:58:51

Перевод: Профессиональный дублированный (iTunes)

Режиссер: Хоаким Роннинг / Joachim Roenning



исполняли (дублировали):



Малефисента - Анджелина Джоли (Светлана Кузнецова)
Аврора - Эль Фаннинг (Диана Лямина)
Принц Филип - Харрис Дикинсон (Андрей Лёвин)
Королева Ингрит - Мишель Пфайффер (Мария Цветкова-Овсянникова)
Diaval - Сэм Райли (Александр Койгеров)
Conall - Чиветель Эджиофор (Вячеслав Штыпс)
Borra - Эд Скрейн (Игорь Андреев)
Король Джон - Роберт Линдсей (Марк Макаренков)
Percival - Дэвид Гяси (Михаил Васильев)
Gerda - Дженн Мюррэй (Ирина Чумантьева)
Thistlewit - Джуно Темпл (Екатерина Тихомирова)
Flittle - Лесли Мэнвилл (Ольга Белявская)
Knotgrass - Имелда Стонтон (Елена Дриацкая)
Shrike (Jungle) - Джудит Шекони



Описание: Принцесса Аврора выросла, и теперь принц Филип делает ей предложение. Наивные молодые люди уверены, что их брак сможет объединить два королевства и помирить людей с волшебными существами, но не тут-то было. На совместном ужине с родителями Филипа, королём Джоном и королевой Ингрит, куда была приглашена и крёстная Авроры, происходит ссора, в результате чего король слегает с недомоганием явно магического свойства, а Малифисента вынуждена спасаться бегством.



Премьера: 16 октября 2019 (17 октября 2019)
Бюджет: $185 000 000
Кассовые сборы: $491 721 579





Качество: BDRip (by Ash61)
Контейнер: MKV
Формат 3D: Half OverUnder / Вертикальная анаморфная стереопара
Порядок ракурсов: левый ракурс первый



Видео: AVC / 1920х1080p / 23,976 fps / 11.0 Mbps

Аудио:
#1 - Русский / AC3 / 48 KHz / 5.1 ch / 384 Kbps (Дубляж - iTunes)
#2 - Украинский / AC3 / 48 KHz / 2 ch / 192 Kbps (Дубляж) (спасибо Hurtom!)
#3 - Английский / AC3 / 48 KHz / 5.1 ch / 640 Kbps (Original - BD 3D)

Субтитры (SRT):
Вшитые (softsub):
#1 - Русские Форсированные (название фильма) (включены по умолчанию)
#2 - Русские Полные
#3 - Русские SDH
#4 - Украинские Форсированные (название фильма)
#5 - English Full
#6 - English SDH

Внешние (UTF-8):
#1 - Русские Форсированные (название фильма) (включены по умолчанию)
#2 - Русские SDH
#3 - Украинские Форсированные (название фильма)

General
Unique ID : 195046774213706242559244820738568606694 (0x92BCA46DDDD99CCF9D66AFBDA4A3D3E6)
Complete name : D:Maleficent.MistressOfEvil(2019)3D-hOU(Ash61)iTunesMaleficent.MistressOfEvil(2019)3D-hOU(Ash61)iTunes.mkv
Format : Matroska
Format version : Version 2
File size : 10.1 GiB
Duration : 1 h 58 min
Overall bit rate : 12.2 Mb/s
Movie name : Малефисента: Владычица тьмы / Maleficent: Mistress of Evil (2019) in 3D
Encoded date : UTC 2020-02-13 18:43:40
Writing application : mkvmerge v5.8.0 ('No Sleep / Pillow') built on Sep 2 2012 15:37:04
Writing library : libebml v1.2.3 + libmatroska v1.3.0

Video
ID : 1
Format : AVC
Format/Info : Advanced Video Codec
Format profile : High@L4.1
Format settings : CABAC / 4 Ref Frames
Format settings, CABAC : Yes
Format settings, Reference : 4 frames
Codec ID : V_MPEG4/ISO/AVC
Duration : 1 h 58 min
Bit rate : 11.0 Mb/s
Width : 1 920 pixels
Height : 1 080 pixels
Display aspect ratio : 16:9
Frame rate mode : Constant
Frame rate : 23.976 (24000/1001) FPS
Color space : YUV
Chroma subsampling : 4:2:0
Bit depth : 8 bits
Scan type : Progressive
Bits/(Pixel*Frame) : 0.221
Stream size : 8.93 GiB (88%)
Title : BDRip by Ash61
Writing library : x264 core 146 r2538 121396c
Encoding settings : cabac=1 / ref=4 / deblock=1:-3:-3 / analyse=0x3:0x113 / me=umh / subme=10 / psy=1 / psy_rd=1.00:0.00 / mixed_ref=1 / me_range=32 / chroma_me=1 / trellis=2 / 8x8dct=1 / cqm=0 / deadzone=21,11 / fast_pskip=0 / chroma_qp_offset=-2 / threads=12 / lookahead_threads=2 / sliced_threads=0 / nr=0 / decimate=0 / interlaced=0 / bluray_compat=0 / constrained_intra=0 / bframes=9 / b_pyramid=2 / b_adapt=2 / b_bias=0 / direct=3 / weightb=1 / open_gop=0 / weightp=2 / keyint=250 / keyint_min=23 / scenecut=40 / intra_refresh=0 / rc_lookahead=60 / rc=2pass / mbtree=0 / bitrate=11000 / ratetol=1.0 / qcomp=0.70 / qpmin=0 / qpmax=69 / qpstep=4 / cplxblur=20.0 / qblur=0.5 / vbv_maxrate=40000 / vbv_bufsize=30000 / nal_hrd=none / filler=0 / frame-packing=4 / ip_ratio=1.40 / pb_ratio=1.30 / aq=1:0.70
Language : English
Default : Yes
Forced : No

Audio #1
ID : 2
Format : AC-3
Format/Info : Audio Coding 3
Commercial name : Dolby Digital
Codec ID : A_AC3
Duration : 1 h 58 min
Bit rate mode : Constant
Bit rate : 384 kb/s
Channel(s) : 6 channels
Channel layout : L R C LFE Ls Rs
Sampling rate : 48.0 kHz
Frame rate : 31.250 FPS (1536 SPF)
Compression mode : Lossy
Stream size : 326 MiB (3%)
Title : Дубляж (iTunes)
Language : Russian
Service kind : Complete Main
Default : Yes
Forced : No

Audio #2
ID : 3
Format : AC-3
Format/Info : Audio Coding 3
Commercial name : Dolby Digital
Codec ID : A_AC3
Duration : 1 h 58 min
Bit rate mode : Constant
Bit rate : 192 kb/s
Channel(s) : 2 channels
Channel layout : L R
Sampling rate : 48.0 kHz
Frame rate : 31.250 FPS (1536 SPF)
Compression mode : Lossy
Stream size : 163 MiB (2%)
Title : Дубляж
Language : Ukrainian
Service kind : Complete Main
Default : No
Forced : No

Audio #3
ID : 4
Format : AC-3
Format/Info : Audio Coding 3
Commercial name : Dolby Digital
Codec ID : A_AC3
Duration : 1 h 58 min
Bit rate mode : Constant
Bit rate : 640 kb/s
Channel(s) : 6 channels
Channel layout : L R C LFE Ls Rs
Sampling rate : 48.0 kHz
Frame rate : 31.250 FPS (1536 SPF)
Compression mode : Lossy
Stream size : 544 MiB (5%)
Title : Original (BD 3D)
Language : English
Service kind : Complete Main
Default : No
Forced : No

Text #1
ID : 5
Format : UTF-8
Codec ID : S_TEXT/UTF8
Codec ID/Info : UTF-8 Plain Text
Title : Форсированные (название фильма)
Language : Russian
Default : Yes
Forced : No

Text #2
ID : 6
Format : UTF-8
Codec ID : S_TEXT/UTF8
Codec ID/Info : UTF-8 Plain Text
Title : Полные
Language : Russian
Default : No
Forced : No

Text #3
ID : 7
Format : UTF-8
Codec ID : S_TEXT/UTF8
Codec ID/Info : UTF-8 Plain Text
Title : SDH
Language : Russian
Default : No
Forced : No

Text #4
ID : 8
Format : UTF-8
Codec ID : S_TEXT/UTF8
Codec ID/Info : UTF-8 Plain Text
Title : Форсированные (название фильма)
Language : Ukrainian
Default : No
Forced : No

Text #5
ID : 9
Format : UTF-8
Codec ID : S_TEXT/UTF8
Codec ID/Info : UTF-8 Plain Text
Title : Full
Language : English
Default : No
Forced : No

Text #6
ID : 10
Format : UTF-8
Codec ID : S_TEXT/UTF8
Codec ID/Info : UTF-8 Plain Text
Title : SDH
Language : English
Default : No
Forced : No

Menu
00:00:00.000 : : 1. Missing Faeries
00:06:47.907 : : 2. The Big Day
00:09:11.676 : : 3. "Don't Ruin My Morning"
00:14:45.551 : : 4. A Time To Celebrate
00:19:27.833 : : 5. An Evil Plan
00:23:10.556 : : 6. Dinner At The Castle
00:33:51.905 : : 7. Out Of The Sky
00:39:10.265 : : 8. Carried Away
00:42:19.579 : : 9. The Dark Fey
00:48:31.992 : : 10. Nest Of Origin
00:52:44.745 : : 11. Wedding Invitation
00:57:15.140 : : 12. A Different Person
00:59:26.146 : : 13. Underground Secrets
01:05:47.569 : : 14. The Wedding Day
01:09:31.751 : : 15. A Curse Revealed
01:19:07.242 : : 16. A War
01:22:48.547 : : 17. "Remember Who You Are"
01:29:09.219 : : 18. Maleficent Arrives
01:35:00.653 : : 19. Chaos Of War
01:44:26.510 : : 20. "Will You Give Me Away?"
01:51:06.994 : : 21. End Credits / "You Can't Stop The Girl"























Не забывайте говорить Спасибо. Не уходите с раздачи!   
Торрент: Зарегистрирован [14 фев 2020, 00:38]
Статус:
Проверен
 
.torrent скачан: 6560 раз
Хэш: ccad156ebfa9643df6f52b700a2ccab71aa45ede
Размер: 10.14 ГБ (10 887 923 939 байт)
   Стать Автором раздачи
   
Цитата

Вернуться в Зарубежное кино (HD Video)

Кто сейчас на конференции

Сейчас эту тему просматривают: нет зарегистрированных пользователей и гости: 1