Ford против Ferrari / Ford v Ferrari (2019) BDRip 1080p от селезень | D, P | iTunes

 Статистика раздачи 
Размер: 12.43 ГБ   |  Зарегистрирован: 14 фев 2020, 00:32   |   .torrent скачан: 17606 раз
Сидеров: 4870  [ 0 байт/сек ]     Личеров: 2044  [ 0 байт/сек ]  
  
Аватара пользователя
Главный редактор
Главный редактор
Я на сайте
 
Раздал: 90.01 ТБ
Скачал: 3.78 ТБ
Ратио: 24.248
Сообщения: 285884
Стаж: 9 лет 4 месяца 1 день
Откуда: Санкт-Петербург

Информация о фильме
Название: Ford против Ferrari
Оригинальное название: Ford v Ferrari
Год выхода: 2019
Жанр: Драма, биография, спорт
Режиссер: Джеймс Мэнголд
В ролях: Кристиан Бэйл, Мэтт Дэймон, Катрина Балф, Трэйси Леттс, Джон Бернтал, Ноа Джуп, Джош Лукас, Ремо Джироне, Рэй МакКиннон, Джей Джей Филд



О фильме: Фильм рассказывает о взаимоотношениях американского автомобильного конструктора Кэрролла Шелби и отважного британского гонщика Кена Майлза, которые вместе бросили вызов корпорациям и собственным демонам, чтобы создать абсолютно новый спорткар, который смог конкурировать с Ferrari на чемпионате мира, прошедшем во Франции в середине 1960-х.

Страна: США, Франция
Студия: Chernin Entertainment, 20th Century Fox Film Corporation
Продолжительность: 02:32:35
Перевод(ы):
#1: Дублированный | iTunes

#2: Профессиональный многоголосый | HDRezka Studio

Качество: BDRip 1080p
Видео: MPEG-4 AVC, 1920x804, 10.0 Mbit/s, 23.976 fps
Аудио #01: 48 kHz, AC3, 5.1, 384 Kbps | Дублированный | RUS |
Аудио #02: 48 kHz, AC3, 5.1, 448 Kbps | Профессиональный многоголосый | RUS |
Аудио #03: 48 kHz, AC3, 2.0, 192 Kbps | Дублированный | UKR |
Аудио #04: 48 kHz, AC3, 5.1, 640 Kbps | Оригинал | ENG |
Субтитры: Русские (Forced, full), украинские (Forced, full), английские



General
Unique ID : 316679531364145935993801854949954603951 (0xEE3E425C6E1FF9A04EB1D4BB53B2CBAF)
Complete name : E:Video111BackupFord.v.Ferrari.2019.D.MVO.BDRip.1080p.seleZen.mkv
Format : Matroska
Format version : Version 4
File size : 12.4 GiB
Duration : 2 h 32 min
Overall bit rate : 11.7 Mb/s
Movie name : Ford v Ferrari 2019 from seleZen
Encoded date : UTC 2020-02-13 20:45:55
Writing application : mkvmerge v40.0.0 ('Old Town Road + Pony') 64-bit
Writing library : libebml v1.3.9 + libmatroska v1.5.2

Video
ID : 1
Format : AVC
Format/Info : Advanced Video Codec
Format profile : High@L4.1
Format settings : CABAC / 5 Ref Frames
Format settings, CABAC : Yes
Format settings, Reference : 5 frames
Codec ID : V_MPEG4/ISO/AVC
Duration : 2 h 32 min
Bit rate : 10 000 kb/s
Width : 1 920 pixels
Height : 804 pixels
Display aspect ratio : 2.40:1
Frame rate mode : Constant
Frame rate : 23.976 (24000/1001) FPS
Color space : YUV
Chroma subsampling : 4:2:0
Bit depth : 8 bits
Scan type : Progressive
Bits/(Pixel*Frame) : 0.270
Stream size : 10.7 GiB (86%)
Title : Encoded by seleZen
Writing library : x264 core 142 r2431+42 c69a006 tMod [8-bit@all X86_64]
Encoding settings : cabac=1 / ref=5 / deblock=1:-2:-2 / analyse=0x3:0x133 / me=umh / subme=10 / psy=1 / fade_compensate=0.00 / psy_rd=1.00:0.00 / mixed_ref=1 / me_range=32 / chroma_me=1 / trellis=2 / 8x8dct=1 / cqm=0 / deadzone=21,11 / fast_pskip=0 / chroma_qp_offset=-2 / threads=24 / lookahead_threads=4 / sliced_threads=0 / nr=0 / decimate=0 / interlaced=0 / bluray_compat=0 / constrained_intra=0 / fgo=0 / bframes=8 / b_pyramid=2 / b_adapt=2 / b_bias=0 / direct=3 / weightb=1 / open_gop=0 / weightp=2 / keyint=240 / keyint_min=23 / scenecut=40 / intra_refresh=0 / rc_lookahead=50 / rc=2pass / mbtree=0 / bitrate=10000 / ratetol=1.0 / qcomp=0.60 / qpmin=0:0:0 / qpmax=51:51:51 / qpstep=4 / cplxblur=20.0 / qblur=0.5 / vbv_maxrate=50000 / vbv_bufsize=62500 / nal_hrd=none / filler=0 / ip_ratio=1.40 / pb_ratio=1.30 / aq=3:0.80 / aq-sensitivity=10.00 / aq-factor=1.00:1.00:1.00 / aq2=0 / aq3=0
Language : English
Default : Yes
Forced : No

Audio #1
ID : 2
Format : AC-3
Format/Info : Audio Coding 3
Commercial name : Dolby Digital
Codec ID : A_AC3
Duration : 2 h 32 min
Bit rate mode : Constant
Bit rate : 384 kb/s
Channel(s) : 6 channels
Channel layout : L R C LFE Ls Rs
Sampling rate : 48.0 kHz
Frame rate : 31.250 FPS (1536 SPF)
Compression mode : Lossy
Stream size : 419 MiB (3%)
Title : iTunes
Language : Russian
Service kind : Complete Main
Default : Yes
Forced : Yes

Audio #2
ID : 3
Format : AC-3
Format/Info : Audio Coding 3
Commercial name : Dolby Digital
Codec ID : A_AC3
Duration : 2 h 32 min
Bit rate mode : Constant
Bit rate : 448 kb/s
Channel(s) : 6 channels
Channel layout : L R C LFE Ls Rs
Sampling rate : 48.0 kHz
Frame rate : 31.250 FPS (1536 SPF)
Compression mode : Lossy
Stream size : 489 MiB (4%)
Title : MVO [HDRezka Studio]
Language : Russian
Service kind : Complete Main
Default : No
Forced : No

Audio #3
ID : 4
Format : AC-3
Format/Info : Audio Coding 3
Commercial name : Dolby Digital
Codec ID : A_AC3
Duration : 2 h 32 min
Bit rate mode : Constant
Bit rate : 192 kb/s
Channel(s) : 2 channels
Channel layout : L R
Sampling rate : 48.0 kHz
Frame rate : 31.250 FPS (1536 SPF)
Compression mode : Lossy
Stream size : 210 MiB (2%)
Title : iTunes
Language : Ukrainian
Service kind : Complete Main
Default : No
Forced : No

Audio #4
ID : 5
Format : AC-3
Format/Info : Audio Coding 3
Commercial name : Dolby Digital
Codec ID : A_AC3
Duration : 2 h 32 min
Bit rate mode : Constant
Bit rate : 640 kb/s
Channel(s) : 6 channels
Channel layout : L R C LFE Ls Rs
Sampling rate : 48.0 kHz
Frame rate : 31.250 FPS (1536 SPF)
Compression mode : Lossy
Stream size : 699 MiB (5%)
Title : Original
Language : English
Service kind : Complete Main
Default : No
Forced : No

Text #1
ID : 6
Format : UTF-8
Codec ID : S_TEXT/UTF8
Codec ID/Info : UTF-8 Plain Text
Duration : 2 h 31 min
Bit rate : 0 b/s
Count of elements : 14
Stream size : 601 Bytes (0%)
Title : Forced [iTunes]
Language : Russian
Default : Yes
Forced : Yes

Text #2
ID : 7
Format : UTF-8
Codec ID : S_TEXT/UTF8
Codec ID/Info : UTF-8 Plain Text
Duration : 2 h 31 min
Bit rate : 85 b/s
Count of elements : 2067
Stream size : 94.8 KiB (0%)
Title : Full [iTunes]
Language : Russian
Default : No
Forced : No

Text #3
ID : 8
Format : UTF-8
Codec ID : S_TEXT/UTF8
Codec ID/Info : UTF-8 Plain Text
Duration : 2 h 25 min
Bit rate : 1 b/s
Count of elements : 19
Stream size : 1.21 KiB (0%)
Title : Forced [no name]
Language : Russian
Default : No
Forced : No

Text #4
ID : 9
Format : UTF-8
Codec ID : S_TEXT/UTF8
Codec ID/Info : UTF-8 Plain Text
Duration : 2 h 26 min
Bit rate : 82 b/s
Count of elements : 1652
Stream size : 87.8 KiB (0%)
Title : Full [blindAvocado]
Language : Russian
Default : No
Forced : No

Text #5
ID : 10
Format : UTF-8
Codec ID : S_TEXT/UTF8
Codec ID/Info : UTF-8 Plain Text
Duration : 2 h 31 min
Bit rate : 1 b/s
Count of elements : 31
Stream size : 1.54 KiB (0%)
Title : Forced
Language : Ukrainian
Default : No
Forced : No

Text #6
ID : 11
Format : UTF-8
Codec ID : S_TEXT/UTF8
Codec ID/Info : UTF-8 Plain Text
Duration : 2 h 31 min
Bit rate : 91 b/s
Count of elements : 2071
Stream size : 101 KiB (0%)
Title : Full
Language : Ukrainian
Default : No
Forced : No

Text #7
ID : 12
Format : UTF-8
Codec ID : S_TEXT/UTF8
Codec ID/Info : UTF-8 Plain Text
Duration : 1 h 24 min
Bit rate : 0 b/s
Count of elements : 9
Stream size : 304 Bytes (0%)
Title : Forced
Language : English
Default : No
Forced : No

Text #8
ID : 13
Format : UTF-8
Codec ID : S_TEXT/UTF8
Codec ID/Info : UTF-8 Plain Text
Duration : 2 h 24 min
Bit rate : 51 b/s
Count of elements : 1638
Stream size : 54.8 KiB (0%)
Title : Full
Language : English
Default : No
Forced : No

Text #9
ID : 14
Format : UTF-8
Codec ID : S_TEXT/UTF8
Codec ID/Info : UTF-8 Plain Text
Duration : 2 h 32 min
Bit rate : 66 b/s
Count of elements : 2489
Stream size : 73.8 KiB (0%)
Title : SDH
Language : English
Default : No
Forced : No

Menu
00:00:00.000 : en:Глава 01
00:04:45.619 : en:Глава 02
00:07:32.535 : en:Глава 03
00:10:02.811 : en:Глава 04
00:15:39.313 : en:Глава 05
00:20:15.172 : en:Глава 06
00:21:39.798 : en:Глава 07
00:26:00.893 : en:Глава 08
00:31:57.874 : en:Глава 09
00:34:09.756 : en:Глава 10
00:39:13.268 : en:Глава 11
00:42:06.899 : en:Глава 12
00:45:57.004 : en:Глава 13
00:48:38.666 : en:Глава 14
00:51:22.079 : en:Глава 15
00:55:03.675 : en:Глава 16
00:57:50.801 : en:Глава 17
01:00:27.040 : en:Глава 18
01:06:33.489 : en:Глава 19
01:11:59.815 : en:Глава 20
01:16:13.778 : en:Глава 21
01:19:30.516 : en:Глава 22
01:24:18.762 : en:Глава 23
01:29:24.985 : en:Глава 24
01:33:16.174 : en:Глава 25
01:38:11.302 : en:Глава 26
01:40:57.468 : en:Глава 27
01:43:23.322 : en:Глава 28
01:45:49.218 : en:Глава 29
01:50:38.966 : en:Глава 30
01:53:38.353 : en:Глава 31
01:57:47.602 : en:Глава 32
02:00:16.668 : en:Глава 33
02:05:22.890 : en:Глава 34
02:09:18.376 : en:Глава 35
02:12:01.497 : en:Глава 36
02:15:26.410 : en:Глава 37
02:18:23.128 : en:Глава 38
02:20:46.438 : en:Глава 39
02:26:27.612 : en:Глава 40


Релиз от:

Не забывайте говорить Спасибо. Не уходите с раздачи!   
Торрент: Зарегистрирован [14 фев 2020, 00:32]
Статус:
Проверен
 
.torrent скачан: 17606 раз
Хэш: 7bc72031fb6914e28f191d745d7139e5625f2ed4
Размер: 12.43 ГБ (13 348 776 885 байт)
   Стать Автором раздачи
   
Цитата

Вернуться в Зарубежное кино (HD Video)

Кто сейчас на конференции

Сейчас эту тему просматривают: нет зарегистрированных пользователей и гости: 1