DanMachi | Dungeon ni Deai o Motomeru no wa Machigatte Iru Darouka II | Is It Wrong to Try to Pick Up Girls in a Dungeon? II | В Подземелье я Пойду, Там Красавицу Найду! [2019, TV-2, 12 ep + OVA] BDRip 1080p raw+rus

 Статистика раздачи 
Размер: 19.79 ГБ   |  Зарегистрирован: 14 фев 2020, 01:40   |   .torrent скачан: 0 раз
Сидеров: 0  [ 0 байт/сек ]     Личеров: 0  [ 0 байт/сек ]  
  
Аватара пользователя
 
Раздал: 6.64 ТБ
Скачал: 597.93 ГБ
Ратио: 11.363
Сообщения: 259859
Стаж: 3 года 11 дней


ダンジョンに出会いを求めるのは間違っているだろうかII
Dungeon ni Deai o Motomeru no wa Machigatte Iru Darouka II
Is It Wrong to Try to Pick Up Girls in a Dungeon? II
В Подземелье я Пойду, Там Красавицу Найду! [ТВ-2]

Тип: TV
Жанр: Приключения, Фэнтези, Романтика
Продолжительность: 12 Эпизодов по 23 Мин.; 1 Эпизод 26 Мин.
Количество серий: 12 Эпизодов + ОВА

Дата выпуска: c 13.07.2019 по 28.09.2019
Автор оригинала: Омори Фудзино
Режиссер: Татибана Хидэки
Производство: J.C. Staff / Япония

| AniDB | MyAnimelist | Shikimori
Описание:
Жизнь в городке Орарио никогда не бывает скучной, особенно для Белла Кранела, немного наивного юноши, который надеется стать величайшим авантюристом в мире. После случайной встречи с одинокой богиней, Гестией, его мечты становятся немного ближе к реальности. С её помощью Белл отправляется на сказочный квест, в глубины катакомб, заполненных монстрами, известных как «Подземелье», смерть в которых поджидает искателей на каждом шагу.
После происшествия на 18-м этаже многие боги начали пристально следить за перспективным юношей — Беллом Кранером, в особенности бог Аполлон...
Автор: one season per night © Shikimori
Качество Видео: BDRip
TV
Видео: AVC/x264, 1920x1080, 23.976 fps, 6 655 kb/s, 0.134 bpp [8-bit]
OVA
Видео: AVC/x264, 1920x1080, 23.976 fps, 9 464 kb/s, 0.190 bpp [8-bit]

Язык Озвучки: Японский и Русский
Озвучка: Многоголосая закадровая
TV
Аудио №1: AC3 2.0, 48.0 kHz, 192 kb/s (AniDub) | Язык:
Аудио №2: AC3 2.0, 48.0 kHz, 192 kb/s (AniLibria) | Язык:
Аудио №3: FLAC 2.0, 48.0 kHz, 1 400 kb/s 24-Bit (Original) | Язык:

OVA
Аудио №1: AC3 2.0, 48.0 kHz, 192 kb/s (AniStar) | Язык:
Аудио №2: FLAC 2.0, 48.0 kHz, 1 485 kb/s 24-Bit (Original) | Язык:

Субтитры: Надписи / Полные (YakuSub Studio & SovetRomantica)

Скриншоты:


1) Dungeon ni Deai o Motomeru no wa Machigatte Iru Darouka
2) Dungeon ni Deai o Motomeru no wa Machigatte Iru Darouka Gaiden: Sword Oratoria
3) Dungeon ni Deai o Motomeru no wa Machigatte Iru Darouka: Orion no Ya
4) Dungeon ni Deai o Motomeru no wa Machigatte Iru Darouka II (Эта раздача)
5) Dungeon ni Deai wo Motomeru no wa Machigatteiru Darou ka III (Анонс)
TV
01. Party. Banquet of the Gods (Праздничный вечер. Бал богов)
02. Apollo. Sun God (Аполлон. Бог солнца)
03. Conversion. Gathering (Обращение. Собрание)
04. War Game (Военная игра)
05. Home. The Hearthfire Mansion (Дом. Особняк Гестии)
06. Ishtar Familia. City of Lust (Семейство Иштар. Город любви)
07. Renard. Fox Person (Ренар. Девушка-лисица)
08. Killing Stone. Ephemeral Dreams (Хрупкая мечта. Смертоносный камень)
09. War Prostitutes. Berbera (Берберы. Воинственные блудницы)
10. Longing to Be a Hero. Argonaut (Аргонавт. Страстное желание героя)
11. Rakia. Army's Advance (Ракия. Поход)
12. Goddess and Child. Song of Love (Песня любви. Богиня и последователь)

OVA
14. Обитаемый Остров
Код: Выделить всё
General
Unique ID                   : 139422719638199702161646313029362829440 (0x68E3D6CD27971217F4EA1F737884C880)
Complete name               : J:\Аниме\В Подземелье я Пойду, Там Красавицу Найду! (Dungeon ni Deai wo Motomeru no wa Machigatteiru Darou ka) BDRip (2015-2019)\01. Party. Banquet of the Gods (Праздничный вечер. Бал богов).mkv
Format                      : Matroska
Format version              : Version 4
File size                   : 1.40 GiB
Duration                    : 23 min 42 s
Overall bit rate mode       : Variable
Overall bit rate            : 8 448 kb/s
Encoded date                : UTC 2020-02-13 19:27:27
Writing application         : mkvmerge v43.0.0 ('The Quartermaster') 64-bit
Writing library             : libebml v1.3.10 + libmatroska v1.5.2
Attachments                 : cambriaz.ttf / CENTAUR.TTF / v_Blambot Casual_v1.01MOD.ttf / v_CCDreamlandLower-Regular_v1.01.ttf / v_FallingSkies_v1.0.ttf / cambriab.ttf

Video
ID                          : 1
Format                      : AVC
Format/Info                 : Advanced Video Codec
Format profile              : High@L4
Format settings             : CABAC / 4 Ref Frames
Format settings, CABAC      : Yes
Format settings, Reference  : 4 frames
Codec ID                    : V_MPEG4/ISO/AVC
Duration                    : 23 min 42 s
Bit rate                    : 6 655 kb/s
Width                       : 1 920 pixels
Height                      : 1 080 pixels
Display aspect ratio        : 16:9
Frame rate mode             : Constant
Frame rate                  : 23.976 (24000/1001) FPS
Color space                 : YUV
Chroma subsampling          : 4:2:0
Bit depth                   : 8 bits
Scan type                   : Progressive
Bits/(Pixel*Frame)          : 0.134
Stream size                 : 1.10 GiB (79%)
Writing library             : x264 core 157
Encoding settings           : opencl=1 / cabac=1 / ref=4 / deblock=1:-2:-2 / analyse=0x3:0x113 / me=umh / subme=9 / psy=1 / psy_rd=0.70:0.00 / mixed_ref=0 / me_range=32 / chroma_me=1 / trellis=2 / 8x8dct=1 / cqm=0 / deadzone=21,11 / fast_pskip=1 / chroma_qp_offset=-2 / threads=8 / lookahead_threads=1 / sliced_threads=0 / nr=0 / decimate=1 / interlaced=0 / bluray_compat=0 / constrained_intra=0 / bframes=9 / b_pyramid=2 / b_adapt=2 / b_bias=0 / direct=3 / weightb=1 / open_gop=0 / weightp=2 / keyint=250 / keyint_min=23 / scenecut=40 / intra_refresh=0 / rc_lookahead=40 / rc=crf / mbtree=1 / crf=16.0 / qcomp=0.70 / qpmin=10 / qpmax=20 / qpstep=4 / ip_ratio=1.40 / aq=1:1.00
Language                    : Japanese
Default                     : Yes
Forced                      : No

Audio #1
ID                          : 2
Format                      : AAC LC
Format/Info                 : Advanced Audio Codec Low Complexity
Codec ID                    : A_AAC-2
Duration                    : 23 min 42 s
Bit rate                    : 192 kb/s
Channel(s)                  : 2 channels
Channel layout              : L R
Sampling rate               : 48.0 kHz
Frame rate                  : 46.875 FPS (1024 SPF)
Compression mode            : Lossy
Stream size                 : 32.1 MiB (2%)
Title                       : AniDub (Nika Lenina & Inspector_Gadjet & Sergei Vasya)
Language                    : Russian
Default                     : Yes
Forced                      : No

Audio #2
ID                          : 3
Format                      : AAC LC
Format/Info                 : Advanced Audio Codec Low Complexity
Codec ID                    : A_AAC-2
Duration                    : 23 min 42 s
Bit rate                    : 192 kb/s
Channel(s)                  : 2 channels
Channel layout              : L R
Sampling rate               : 48.0 kHz
Frame rate                  : 46.875 FPS (1024 SPF)
Compression mode            : Lossy
Stream size                 : 32.1 MiB (2%)
Title                       : AniLibria (Sharon & Amikiri & HectoR & Hekomi & Dejz & Gomer)
Language                    : Russian
Default                     : No
Forced                      : No

Audio #3
ID                          : 4
Format                      : FLAC
Format/Info                 : Free Lossless Audio Codec
Codec ID                    : A_FLAC
Duration                    : 23 min 42 s
Bit rate mode               : Variable
Bit rate                    : 1 400 kb/s
Channel(s)                  : 2 channels
Channel layout              : L R
Sampling rate               : 48.0 kHz
Frame rate                  : 10.417 FPS (4608 SPF)
Bit depth                   : 24 bits
Compression mode            : Lossless
Stream size                 : 237 MiB (17%)
Title                       : Original
Writing library             : Lavf58.29.100
Language                    : Japanese
Default                     : No
Forced                      : No

Text #1
ID                          : 5
Format                      : ASS
Codec ID                    : S_TEXT/ASS
Codec ID/Info               : Advanced Sub Station Alpha
Duration                    : 22 min 0 s
Bit rate                    : 3 b/s
Count of elements           : 5
Compression mode            : Lossless
Stream size                 : 529 Bytes (0%)
Title                       : Forced (YakuSub Studio & SovetRomantica)
Language                    : Russian
Default                     : Yes
Forced                      : No

Text #2
ID                          : 6
Format                      : ASS
Codec ID                    : S_TEXT/ASS
Codec ID/Info               : Advanced Sub Station Alpha
Duration                    : 23 min 17 s
Bit rate                    : 155 b/s
Count of elements           : 355
Compression mode            : Lossless
Stream size                 : 26.4 KiB (0%)
Title                       : Full (YakuSub Studio & SovetRomantica)
Language                    : Russian
Default                     : No
Forced                      : No
Код: Выделить всё
General
Unique ID                   : 301959967884317366216766083905483541036 (0xE32B5FD9B1123400818D9A69909D8A2C)
Complete name               : J:\Аниме\В Подземелье я Пойду, Там Красавицу Найду! (Dungeon ni Deai wo Motomeru no wa Machigatteiru Darou ka) BDRip (2015-2019)\13 (OVA-2). Обитаемый Остров.mkv
Format                      : Matroska
Format version              : Version 4
File size                   : 2.07 GiB
Duration                    : 26 min 38 s
Overall bit rate mode       : Variable
Overall bit rate            : 11.1 Mb/s
Encoded date                : UTC 2020-02-13 19:32:06
Writing application         : mkvmerge v43.0.0 ('The Quartermaster') 64-bit
Writing library             : libebml v1.3.10 + libmatroska v1.5.2

Video
ID                          : 1
Format                      : AVC
Format/Info                 : Advanced Video Codec
Format profile              : [url=http://nnmclub.to/mailto:High@L4.1]High@L4.1[/url]
Format settings             : CABAC / 4 Ref Frames
Format settings, CABAC      : Yes
Format settings, Reference  : 4 frames
Codec ID                    : V_MPEG4/ISO/AVC
Duration                    : 26 min 38 s
Bit rate                    : 9 464 kb/s
Width                       : 1 920 pixels
Height                      : 1 080 pixels
Display aspect ratio        : 16:9
Frame rate mode             : Constant
Frame rate                  : 23.976 (24000/1001) FPS
Color space                 : YUV
Chroma subsampling          : 4:2:0
Bit depth                   : 8 bits
Scan type                   : Progressive
Bits/(Pixel*Frame)          : 0.190
Stream size                 : 1.76 GiB (85%)
Writing library             : x264 core 157 r2969 d4099dd
Encoding settings           : cabac=1 / ref=4 / deblock=1:-1:-1 / analyse=0x3:0x133 / me=umh / subme=9 / psy=1 / psy_rd=0.85:0.00 / mixed_ref=1 / me_range=32 / chroma_me=1 / trellis=2 / 8x8dct=1 / cqm=0 / deadzone=21,11 / fast_pskip=1 / chroma_qp_offset=-4 / threads=4 / lookahead_threads=1 / sliced_threads=0 / nr=0 / decimate=0 / interlaced=0 / bluray_compat=0 / constrained_intra=0 / bframes=5 / b_pyramid=2 / b_adapt=2 / b_bias=0 / direct=2 / weightb=1 / open_gop=0 / weightp=2 / keyint=230 / keyint_min=23 / scenecut=40 / intra_refresh=0 / rc_lookahead=50 / rc=crf / mbtree=1 / crf=15.0 / qcomp=0.70 / qpmin=10 / qpmax=42 / qpstep=4 / vbv_maxrate=50000 / vbv_bufsize=50000 / crf_max=0.0 / nal_hrd=none / filler=0 / ip_ratio=1.40 / aq=1:0.90
Language                    : Japanese
Default                     : Yes
Forced                      : No

Audio #1
ID                          : 2
Format                      : AAC LC
Format/Info                 : Advanced Audio Codec Low Complexity
Codec ID                    : A_AAC-2
Duration                    : 26 min 38 s
Bit rate                    : 192 kb/s
Channel(s)                  : 2 channels
Channel layout              : L R
Sampling rate               : 48.0 kHz
Frame rate                  : 46.875 FPS (1024 SPF)
Compression mode            : Lossy
Stream size                 : 36.1 MiB (2%)
Title                       : AniStar (OVERLORDS & Shoker & Xelenum & Kanade Eu & SatiAkura & Ruri)
Language                    : Russian
Default                     : Yes
Forced                      : No

Audio #2
ID                          : 3
Format                      : FLAC
Format/Info                 : Free Lossless Audio Codec
Codec ID                    : A_FLAC
Duration                    : 26 min 38 s
Bit rate mode               : Variable
Bit rate                    : 1 485 kb/s
Channel(s)                  : 2 channels
Channel layout              : L R
Sampling rate               : 48.0 kHz
Frame rate                  : 11.719 FPS (4096 SPF)
Bit depth                   : 24 bits
Compression mode            : Lossless
Stream size                 : 283 MiB (13%)
Title                       : Original
Writing library             : libFLAC 1.3.2 (UTC 2017-01-01)
Language                    : Japanese
Default                     : No
Forced                      : No
Время раздачи: С 8:00 по 18:00 МСК (до появления первых 3-5 скачавших)
Понравился релиз? Ставь
Оценку
и нажми
"Спасибо"
Это серьёзно меня мотивирует делать подобные релизы.
За ретайминг звука и субтитров огромное спасибо
DS2902
Полный список ретаймов
Не забывайте говорить Спасибо. Не уходите с раздачи!   
Торрент: Зарегистрирован [14 фев 2020, 01:40]
Статус:
Проверен
 
.torrent скачан: 0 раз
Хэш: b4423b494ba448511ff0d0327d06fc349a7720ed
Размер: 19.79 ГБ (21 248 962 645 байт)
   Стать Автором раздачи
   
Цитата
  • Похожие торренты
    Ответы
    Просмотры
    Последнее сообщение

Вернуться в Аниме, Японские мультфильмы

Кто сейчас на конференции

Сейчас эту тему просматривают: нет зарегистрированных пользователей и гости: 1